Статистика раздачи
Размер:  198 MB   |    Зарегистрирован:  1 месяц 2 дня   |    Скачан:  0 раз

Полного источника не было: Никогда

 
   
 
 

craft ®

Пол:
Не указан
Стаж:
2 месяца 7 дней
Сообщений:
432

Bees Make Honey / Music Every Night
Жанр: Pub Rock
Носитель: CD
Страна-производитель диска (релиза): Japan
Год издания: 1973/1994
Издатель (лейбл): Vivid Sound
Номер по каталогу: VSCD-532
Страна исполнителя (группы): UK
Аудиокодек: WavPack (*.wv)
Тип рипа: image+.cue
Битрейт аудио: lossless
Продолжительность: 00:35:00
Источник (релизер): pqsyerg
Наличие сканов в содержимом раздачи: да
Треклист:
1 Caldonia
2 Music Every Night
3 Knee Trembler
4 Kentucky Chicken Fry
5 Boosterstown
6 Chinee's Dead
7 Bloodshot Eyes
8 Blood Brothers
9 Highway Song
10 My Rockin' Days

Лог создания рипа

Exact Audio Copy V1.0 beta 3 from 29. August 2011
EAC extraction logfile from 22. June 2017, 23:32
Bees Make Honey / Music Every Night
Used drive : MATSHITADVD-RAM UJ8B1AS Adapter: 0 ID: 1
Read mode : Secure
Utilize accurate stream : Yes
Defeat audio cache : Yes
Make use of C2 pointers : No
Read offset correction : 6
Overread into Lead-In and Lead-Out : No
Fill up missing offset samples with silence : Yes
Delete leading and trailing silent blocks : No
Null samples used in CRC calculations : Yes
Used interface : Native Win32 interface for Win NT & 2000
Used output format : User Defined Encoder
Selected bitrate : 896 kBit/s
Quality : High
Add ID3 tag : Yes
Command line compressor : D:\DISTRIBUTIVE\WavPack\wavpack-4.80.0-x64\wavpack.exe
Additional command line options : -hm -w "Year=%year%" -w "Genre=%genre%" %source% %dest%
TOC of the extracted CD
Track | Start | Length | Start sector | End sector
---------------------------------------------------------
1 | 0:00.00 | 3:30.25 | 0 | 15774
2 | 3:30.25 | 3:08.55 | 15775 | 29929
3 | 6:39.05 | 2:53.50 | 29930 | 42954
4 | 9:32.55 | 4:23.02 | 42955 | 62681
5 | 13:55.57 | 3:16.55 | 62682 | 77436
6 | 17:12.37 | 3:41.55 | 77437 | 94066
7 | 20:54.17 | 3:32.10 | 94067 | 109976
8 | 24:26.27 | 3:12.38 | 109977 | 124414
9 | 27:38.65 | 3:46.27 | 124415 | 141391
10 | 31:25.17 | 3:34.60 | 141392 | 157501
Range status and errors
Selected range
Filename D:\MUSIC\1973 Bees Make Honey - Music Every Night [1994,Vivid Sound - VSCD-532,Japan,CD]\1973 Bees Make Honey - Music Every Night [1994,Vivid Sound - VSCD-532,Japan,CD].wav
Peak level 98.4 %
Extraction speed 3.8 X
Range quality 100.0 %
Test CRC 9B690FCD
Copy CRC 9B690FCD
Copy OK
No errors occurred
AccurateRip summary
Track 1 cannot be verified as accurate (confidence 2) [DBC1ECDA], AccurateRip returned [B52D1FAF] (AR v2)
Track 2 cannot be verified as accurate (confidence 2) [7289DD5A], AccurateRip returned [3D50C309] (AR v2)
Track 3 cannot be verified as accurate (confidence 2) [D3D52361], AccurateRip returned [2ACD9C83] (AR v2)
Track 4 cannot be verified as accurate (confidence 2) [B5BADDF2], AccurateRip returned [E6AB02ED] (AR v2)
Track 5 cannot be verified as accurate (confidence 2) [FEF571C1], AccurateRip returned [0B2F5500] (AR v2)
Track 6 cannot be verified as accurate (confidence 2) [70B1A2D3], AccurateRip returned [495602F6] (AR v2)
Track 7 cannot be verified as accurate (confidence 2) [7037B7BB], AccurateRip returned [7C07320B] (AR v2)
Track 8 cannot be verified as accurate (confidence 2) [4093E787], AccurateRip returned [6FFE29EC] (AR v2)
Track 9 cannot be verified as accurate (confidence 2) [911EEE67], AccurateRip returned [846A24E2] (AR v2)
Track 10 cannot be verified as accurate (confidence 2) [8A50355D], AccurateRip returned [399573BC] (AR v2)
No tracks could be verified as accurate
You may have a different pressing from the one(s) in the database
End of status report
==== Log checksum 70615A621081DFE539F02224C752B164B52D657FEFBC9907C584CD2A8919E574 ====

Содержание индексной карты (.CUE)

REM GENRE "Classic Rock"
REM DATE 1973
REM DISCID 7C08340A
REM COMMENT "ExactAudioCopy v1.0b3"
PERFORMER "Bees Make Honey"
TITLE "Music Every Night"
FILE "1973 Bees Make Honey - Music Every Night [1994,Vivid Sound - VSCD-532,Japan,CD].wv" WAVE
TRACK 01 AUDIO
TITLE "Caldonia"
PERFORMER "Bees Make Honey"
INDEX 01 00:00:00
TRACK 02 AUDIO
TITLE "Music Every Night"
PERFORMER "Bees Make Honey"
INDEX 00 03:25:05
INDEX 01 03:30:25
TRACK 03 AUDIO
TITLE "Knee Trembler"
PERFORMER "Bees Make Honey"
INDEX 00 06:35:42
INDEX 01 06:39:05
TRACK 04 AUDIO
TITLE "Kentucky Chicken Fry"
PERFORMER "Bees Make Honey"
INDEX 00 09:29:50
INDEX 01 09:32:55
TRACK 05 AUDIO
TITLE "Booterstown"
PERFORMER "Bees Make Honey"
INDEX 00 13:51:25
INDEX 01 13:55:57
TRACK 06 AUDIO
TITLE "Chinee's Dead"
PERFORMER "Bees Make Honey"
INDEX 00 17:08:62
INDEX 01 17:12:37
TRACK 07 AUDIO
TITLE "Bloodshot Eyes"
PERFORMER "Bees Make Honey"
INDEX 00 20:50:72
INDEX 01 20:54:17
TRACK 08 AUDIO
TITLE "Blood Brother"
PERFORMER "Bees Make Honey"
INDEX 00 24:23:52
INDEX 01 24:26:27
TRACK 09 AUDIO
TITLE "Highway Song"
PERFORMER "Bees Make Honey"
INDEX 00 27:37:15
INDEX 01 27:38:65
TRACK 10 AUDIO
TITLE "My Rockin' Days"
PERFORMER "Bees Make Honey"
INDEX 00 31:21:12
INDEX 01 31:25:17

DR 12

foobar2000 1.3.9 / Dynamic Range Meter 1.1.1
log date: 2018-03-17 18:48:14
--------------------------------------------------------------------------------
Analyzed: Bees Make Honey / Music Every Night
--------------------------------------------------------------------------------
DR Peak RMS Duration Track
--------------------------------------------------------------------------------
DR13 -2.86 dB -17.33 dB 3:30 01-Caldonia
DR12 -2.10 dB -15.57 dB 3:09 02-Music Every Night
DR11 -3.48 dB -16.21 dB 2:54 03-Knee Trembler
DR12 -0.13 dB -14.27 dB 4:23 04-Kentucky Chicken Fry
DR12 -3.24 dB -18.34 dB 3:17 05-Booterstown
DR11 -0.43 dB -13.79 dB 3:42 06-Chinee's Dead
DR10 -1.74 dB -14.02 dB 3:32 07-Bloodshot Eyes
DR12 -3.36 dB -17.42 dB 3:13 08-Blood Brother
DR13 -3.34 dB -19.05 dB 3:46 09-Highway Song
DR13 -3.99 dB -18.60 dB 3:35 10-My Rockin' Days
--------------------------------------------------------------------------------
Number of tracks: 10
Official DR value: DR12
Samplerate: 44100 Hz
Channels: 2
Bits per sample: 16
Bitrate: 786 kbps
Codec: WavPack
================================================================================

Об альбоме (сборнике)

Японский первопресс
Описание на Discogs
[cybertorrent.ru].t41851.torrent 
Торрент: Зарегистрирован [ 2018-03-19 19:00 ] · F66648054ACE2D94E655CC337B3485D0741FE85B

Скачать .torrent

Скачать

17 KB

Статус: проверено
Скачан: 0 раз
Размер: 198 MB
Профиль [ЛС]
Показать сообщения:    

Текущее время: 22-Апр 16:12

Часовой пояс: UTC ± 0



Вы не можете начинать темы
Вы не можете отвечать на сообщения
Вы не можете редактировать свои сообщения
Вы не можете удалять свои сообщения
Вы не можете голосовать в опросах
Вы не можете прикреплять файлы к сообщениям
Вы можете скачивать файлы