Статистика раздачи
Размер:  244 MB   |    Зарегистрирован:  1 месяц 3 дня   |    Скачан:  0 раз

Полного источника не было: Никогда

 
   
 
 

torrents.pl ®

Пол:
Не указан
Стаж:
2 месяца 7 дней
Сообщений:
93

Judas Priest / Rocka Rolla (Reissue 1993) [TECX - 20608]
Жанр: Hard Rock / Heavy Metal
Носитель: CD
Страна-производитель диска (релиза): Japan
Год издания: 1974
Издатель (лейбл): Teichiku Records
Номер по каталогу: TECX - 20608
Страна исполнителя (группы): UK
Аудиокодек: FLAC (*.flac)
Тип рипа: image+.cue
Битрейт аудио: lossless
Продолжительность: 38:51
Источник (релизер): alexharvey (спасибо !)
Наличие сканов в содержимом раздачи: да
Треклист:
01. One For The Road
02. Rocka Rolla
03. Winter
04. Deep Freeze
05. Winter Retreat
06. Cheater
07. Never Satisfied
08. Run Of The Mill
09. Dying To Meet You
10. Caviar And Meths

Лог создания рипа

Exact Audio Copy V1.3 from 2. September 2016
EAC extraction logfile from 17. March 2018, 2:41
Judas Priest / Rocka Rolla
Used drive : TSSTcorpCDDVDW TS-L633B Adapter: 1 ID: 0
Read mode : Secure
Utilize accurate stream : Yes
Defeat audio cache : Yes
Make use of C2 pointers : No
Read offset correction : 6
Overread into Lead-In and Lead-Out : No
Fill up missing offset samples with silence : Yes
Delete leading and trailing silent blocks : No
Null samples used in CRC calculations : Yes
Used interface : Native Win32 interface for Win NT & 2000
Used output format : Internal WAV Routines
Sample format : 44.100 Hz; 16 Bit; Stereo
TOC of the extracted CD
Track | Start | Length | Start sector | End sector
---------------------------------------------------------
1 | 0:00.00 | 4:34.32 | 0 | 20581
2 | 4:34.32 | 3:01.25 | 20582 | 34181
3 | 7:35.57 | 2:59.35 | 34182 | 47641
4 | 10:35.17 | 2:00.08 | 47642 | 56649
5 | 12:35.25 | 1:31.32 | 56650 | 63506
6 | 14:06.57 | 2:57.70 | 63507 | 76851
7 | 17:04.52 | 4:49.45 | 76852 | 98571
8 | 21:54.22 | 8:33.08 | 98572 | 137054
9 | 30:27.30 | 6:18.45 | 137055 | 165449
10 | 36:46.00 | 2:04.57 | 165450 | 174806
Range status and errors
Selected range
Filename F:\Alexharvey\Judas Priest - Rocka Rolla.wav
Peak level 100.0 %
Extraction speed 2.5 X
Range quality 100.0 %
Test CRC CF3212A3
Copy CRC CF3212A3
Copy OK
No errors occurred
AccurateRip summary
Track 1 accurately ripped (confidence 2) [7F10722B] (AR v2)
Track 2 accurately ripped (confidence 2) [F9DD637F] (AR v2)
Track 3 accurately ripped (confidence 2) [2D4CB6B5] (AR v2)
Track 4 accurately ripped (confidence 2) [E3860C03] (AR v2)
Track 5 accurately ripped (confidence 2) [99FA70E9] (AR v2)
Track 6 accurately ripped (confidence 2) [55A4645A] (AR v2)
Track 7 accurately ripped (confidence 2) [4662EA6C] (AR v2)
Track 8 accurately ripped (confidence 2) [17DFCE61] (AR v2)
Track 9 accurately ripped (confidence 2) [E5D6064A] (AR v2)
Track 10 accurately ripped (confidence 2) [C488960F] (AR v2)
All tracks accurately ripped
End of status report
---- CUETools DB Plugin V2.1.6
[CTDB TOCID: CcjmB1AMrcHCEP9PbYyENPVrelA-] found
Submit result: CcjmB1AMrcHCEP9PbYyENPVrelA- has been confirmed
Track | CTDB Status
1 | (2/2) Accurately ripped
2 | (2/2) Accurately ripped
3 | (2/2) Accurately ripped
4 | (2/2) Accurately ripped
5 | (2/2) Accurately ripped
6 | (2/2) Accurately ripped
7 | (2/2) Accurately ripped
8 | (2/2) Accurately ripped
9 | (2/2) Accurately ripped
10 | (2/2) Accurately ripped
==== Log checksum B2C029B49C48570C2F2B298D57B077DAAC46EB94B70C5E949D17E274E00B35B3 ====

Лог проверки качества

foobar2000 1.3.17 / Dynamic Range Meter 1.1.1
log date: 2018-03-17 03:33:22
--------------------------------------------------------------------------------
Analyzed: Judas Priest / Rocka Rolla
--------------------------------------------------------------------------------
DR Peak RMS Duration Track
--------------------------------------------------------------------------------
DR11 -0.80 dB -13.95 dB 4:34 01-One For The Road
DR10 0.00 dB -12.44 dB 3:01 02-Rocka Rolla
DR12 0.00 dB -15.40 dB 2:59 03-Winter
DR13 -2.07 dB -20.42 dB 2:00 04-Deep Freeze
DR11 -3.38 dB -18.51 dB 1:31 05-Winter Retreat
DR11 -0.08 dB -12.43 dB 2:58 06-Cheater
DR12 -1.16 dB -14.66 dB 4:50 07-Never Satisfied
DR12 -2.80 dB -18.54 dB 8:33 08-Run Of The Mill
DR12 -1.28 dB -17.51 dB 6:19 09-Dying To Meet You
DR12 -1.88 dB -18.54 dB 2:05 10-Caviar And Meths
--------------------------------------------------------------------------------
Number of tracks: 10
Official DR value: DR12
Samplerate: 44100 Hz
Channels: 2
Bits per sample: 16
Bitrate: 814 kbps
Codec: FLAC
================================================================================

Скриншот спектра частот

Доп. информация: Такого японского издания на трекере нет. Высокооктановый хард-рок начинающих легенд!!!

Об исполнителе (группе)

http://cybertorrent.ru/viewtopic.php?t=4836371

Описание материала

Отличный дебютный альбом Judas Priest, сильно недооценённый критикой. Металлом здесь ещё и не пахнет, прекрасная хардовая запись. По словам участников группы, альбом практически полностью был создан в студии что называется «вживую», то есть все музыканты играли одновременно, как на концерте, и только редкие партии записывались отдельно.
[cybertorrent.ru].t41869.torrent 
Торрент: Зарегистрирован [ 2018-03-19 19:00 ] · 2512AEBD55BEFB67657531E5CD9C4A111C948449

Скачать .torrent

Скачать

20 KB

Статус: проверено
Скачан: 0 раз
Размер: 244 MB
Профиль [ЛС]
Показать сообщения:    

Текущее время: 22-Апр 23:51

Часовой пояс: UTC ± 0



Вы не можете начинать темы
Вы не можете отвечать на сообщения
Вы не можете редактировать свои сообщения
Вы не можете удалять свои сообщения
Вы не можете голосовать в опросах
Вы не можете прикреплять файлы к сообщениям
Вы можете скачивать файлы