Статистика раздачи
Размер:  284 MB   |    Зарегистрирован:  1 месяц 2 дня   |    Скачан:  0 раз

Полного источника не было: Никогда

 
   
 
 

craft ®

Пол:
Не указан
Стаж:
2 месяца 7 дней
Сообщений:
432

Lex Rex / Beat The Heat
Жанр: Hard Rock | CCM
Носитель: CD
Страна-производитель диска (релиза): USA
Год издания: 1990
Издатель (лейбл): Pan-Trax Records
Номер по каталогу: PTX-D-89007
Страна исполнителя (группы): USA
Аудиокодек: FLAC (*.flac)
Тип рипа: image+.cue
Битрейт аудио: lossless
Продолжительность: 42:14
Источник (релизер): alzal (спасибо !)
Наличие сканов в содержимом раздачи: да
Треклист:
01. Blown Away (4:44)
02. Beat The Heat (3:31)
03. Broken Heart (4:52)
04. My Lord (3:27)
05. I Kill Devils (4:19)
06. Blood Of Love (4:09)
07. Crying In The Night (5:29)
08. Absolute Perfection (3:25)
09. Sledgehammer (4:09)
10. Daddy (4:09)

Лог создания рипа

Exact Audio Copy V1.1 from 23. June 2015
Отчёт EAC об извлечении, выполненном 14. марта 2018, 20:02
Lex Rex / Beat The Heat (PTX-D-89007)
Дисковод: PLEXTOR BD-R PX-B950SA Adapter: 1 ID: 0
Режим чтения : Достоверность
Использование точного потока : Да
Отключение кэша аудио : Да
Использование указателей C2 : Нет
Коррекция смещения при чтении : 6
Способность читать области Lead-in и Lead-out : Нет
Заполнение пропущенных сэмплов тишиной : Да
Удаление блоков с тишиной в начале и конце : Нет
При вычислениях CRC использовались нулевые сэмплы : Да
Интерфейс : Встроенный Win32-интерфейс для Win NT/2000
Выходной формат : Пользовательский кодировщик
Выбранный битрейт : 1024 kBit/s
Качество : Высокий
Добавление ID3-тега : Нет
Утилита сжатия : C:\Program Files (x86)\Exact Audio Copy\FLAC\FLAC.EXE
Дополнительные параметры : -6 -V -T "ARTIST=%artist%" -T "TITLE=%title%" -T "ALBUM=%albumtitle%" -T "DATE=%year%" -T "TRACKNUMBER=%tracknr%" -T "GENRE=%genre%" -T "COMMENT=%comment%" -T "BAND=%albuminterpret%" -T "ALBUMARTIST=%albuminterpret%" -T "COMPOSER=%composer%" %haslyrics%--tag-from-file=LYRICS="%lyricsfile%"%haslyrics% -T "DISCNUMBER=%cdnumber%" -T "TOTALDISCS=%totalcds%" -T "TOTALTRACKS=%numtracks%" %hascover%--picture="%coverfile%"%hascover% %source% -o %dest%
TOC извлечённого CD
Трек | Старт | Длительность | Начальный сектор | Конечный сектор
---------------------------------------------------------------------
1 | 0:00.00 | 4:43.60 | 0 | 21284
2 | 4:43.60 | 3:30.65 | 21285 | 37099
3 | 8:14.50 | 4:52.30 | 37100 | 59029
4 | 13:07.05 | 3:27.25 | 59030 | 74579
5 | 16:34.30 | 4:18.62 | 74580 | 93991
6 | 20:53.17 | 4:08.40 | 93992 | 112631
7 | 25:01.57 | 5:29.25 | 112632 | 137331
8 | 30:31.07 | 3:25.23 | 137332 | 152729
9 | 33:56.30 | 4:08.57 | 152730 | 171386
10 | 38:05.12 | 4:08.48 | 171387 | 190034
Характеристики диапазона извлечения и сообщения об ошибках
Выбранный диапазон
Имя файла G:\RIP\Lex Rex 1990 FLAC by alzal\Lex Rex - Beat The Heat (PTX-D-89007).wav
Пиковый уровень 88.9 %
Скорость извлечения 7.9 X
Качество диапазона 99.9 %
CRC теста 3925136C
CRC копии 3925136C
Копирование... OK
Ошибок не произошло
AccurateRip: сводка
Трек 1 : извлечено точно (доверие 2) [D3FE6A34] (AR v1)
Трек 2 : извлечено точно (доверие 2) [4CA0E9A1] (AR v1)
Трек 3 : извлечено точно (доверие 2) [B27B0A7C] (AR v1)
Трек 4 : извлечено точно (доверие 2) [204150B8] (AR v1)
Трек 5 : извлечено точно (доверие 2) [5D093AEB] (AR v1)
Трек 6 : извлечено точно (доверие 2) [92814609] (AR v1)
Трек 7 : извлечено точно (доверие 2) [3B4EDDF8] (AR v1)
Трек 8 : извлечено точно (доверие 2) [74315245] (AR v1)
Трек 9 : извлечено точно (доверие 2) [AE1DFF1E] (AR v1)
Трек 10 : извлечено точно (доверие 2) [ADC22F5E] (AR v1)
Все треки извлечены точно
Конец отчёта
---- CUETools DB Plugin V2.1.6
[CTDB TOCID: 7spDE3_vG9Xu8HF4zz5FLjslo1w-] disk not present in database
Submit result: 7spDE3_vG9Xu8HF4zz5FLjslo1w- has been uploaded
==== Контрольная сумма отчёта 652D387C49D5FF3B56CFBF08F29140B8B3F0C016A129CBBB01323070C63E59E5 ====

Лог проверки качества

-----------------------
DON'T MODIFY THIS FILE
-----------------------
PERFORMER: auCDtect Task Manager, ver. 1.6.0 RC1 build 1.6.0.1
Copyright (c) 2008-2010 y-soft. All rights reserved
http://y-soft.org
ANALYZER: auCDtect: CD records authenticity detector, version 0.8.2
Copyright (c) 2004 Oleg Berngardt. All rights reserved.
Copyright (c) 2004 Alexander Djourik. All rights reserved.
FILE: Lex Rex - Beat The Heat (PTX-D-89007).flac
Size: 291653292 Hash: 629985860B442E5CD696E69140DFFC22 Accuracy: -m0
Conclusion: CDDA 100%
Signature: 1AB071A2B64F1F9EC366237AD233A0CD78DF481F

Лог DRM

foobar2000 1.2.9 / Dynamic Range Meter 1.1.1
log date: 2018-03-17 19:35:54
--------------------------------------------------------------------------------
Analyzed: Lex Rex / Beat The Heat (PTX-D-89007)
--------------------------------------------------------------------------------
DR Peak RMS Duration Track
--------------------------------------------------------------------------------
DR15 -1.02 dB -17.01 dB 4:44 01-Blown Away
DR14 -1.48 dB -17.24 dB 3:31 02-Beat The Heat
DR14 -1.42 dB -18.50 dB 4:52 03-Broken Heart
DR14 -1.95 dB -18.12 dB 3:27 04-My Lord
DR13 -2.27 dB -17.07 dB 4:19 05-I Kill Devils
DR14 -1.16 dB -17.65 dB 4:09 06-Blood Of Love
DR13 -3.62 dB -19.78 dB 5:29 07-Crying In The Night
DR15 -2.11 dB -19.87 dB 3:25 08-Absolute Perfection
DR14 -1.96 dB -17.42 dB 4:09 09-Sledgehammer
DR13 -4.49 dB -19.55 dB 4:09 10-Daddy
--------------------------------------------------------------------------------
Number of tracks: 10
Official DR value: DR14
Samplerate: 44100 Hz
Channels: 2
Bits per sample: 16
Bitrate: 921 kbps
Codec: FLAC
================================================================================

Состав

ϟ Lex Rex is ϟ
Harv Prichard - Vocals
Tom Brock - Guitar
Tony Vines - Drums
Curt Walsh - Bass
Produced by Lex Rex
All Songs Recorded at Classic Recording Studio, Bristol, Virginia
[cybertorrent.ru].t41870.torrent 
Торрент: Зарегистрирован [ 2018-03-19 19:00 ] · 6F5C7F7A0EFF6D4EBCC347541B197BFCFA442DBB

Скачать .torrent

Скачать

12 KB

Статус: проверено
Скачан: 0 раз
Размер: 284 MB
Профиль [ЛС]
Показать сообщения:    

Текущее время: 22-Апр 14:36

Часовой пояс: UTC ± 0



Вы не можете начинать темы
Вы не можете отвечать на сообщения
Вы не можете редактировать свои сообщения
Вы не можете удалять свои сообщения
Вы не можете голосовать в опросах
Вы не можете прикреплять файлы к сообщениям
Вы можете скачивать файлы