Статистика раздачи
Размер:  1,16 GB   |    Зарегистрирован:  1 месяц 2 дня   |    Скачан:  0 раз

Полного источника не было: Никогда

 
   
 
 

Катюшка ®

Пол:
Не указан
Стаж:
2 месяца 7 дней
Сообщений:
288

Tony Lowe & Alison Fleming

DiscographyЖанр: Atmospheric Prog/Dream/Progressive
Носитель: WEB
Год издания: 2005-2014
Страна исполнителя (группы): UK
Аудиокодек: FLAC (*.flac)
Тип рипа: tracks
Битрейт аудио: lossless
Продолжительность: 03:17:52
Источник (релизер): Bandcamp
Наличие сканов в содержимом раздачи: нет

2005 - All of the Above [01:14:43]


01. Fires keep burning [00:05:29]
02. Spirit of the physical [00:04:55]
03. A new tomorrow [00:03:18]
04. I see light [00:03:48]
05. If I felt that way [00:03:59]
06. Gold [00:04:38]
07. Silver thread [00:04:44]
08. Green fingers [00:07:17]
09. Find the cause [00:05:50]
10. Blue like the sky [00:04:12]
11. Indigo moon [00:04:31]
12. My star and I [00:04:30]
13. Unselfish love [00:04:57]
14. Straight to the heart [00:05:20]
15. Love is here to stay [00:04:38]
16. I believe in everything [00:02:28]
Состав:
Tony Lowe - All Instruments, Vocals
Alison Fleming - Vocals, Mandolin and Acoustic guitar on "Silver Thread"
Released September 25, 2005

Лог проверки качества

-----------------------
DON'T MODIFY THIS FILE
-----------------------
PERFORMER: auCDtect Task Manager, ver. 1.6.0 RC1 build 1.6.0.1
Copyright (c) 2008-2010 y-soft. All rights reserved
http://y-soft.org
ANALYZER: auCDtect: CD records authenticity detector, version 0.8.2
Copyright (c) 2004 Oleg Berngardt. All rights reserved.
Copyright (c) 2004 Alexander Djourik. All rights reserved.
FILE: Tony Lowe & Alison Fleming - All of the Above - 16 I believe in everything.flac
Size: 17765509 Hash: C33EA54F339879F3A267D99D9EBA18BA Accuracy: -m0
Conclusion: CDDA 99%
Signature: FBBE2B325A4BF8E88211DE1ADB9E81F6991A491B
FILE: Tony Lowe & Alison Fleming - All of the Above - 15 Love is here to stay.flac
Size: 30292114 Hash: 35408891299CDCCD8E5548F02A455737 Accuracy: -m0
Conclusion: CDDA 100%
Signature: A43870C8D56B271EB9C32D2FA33D87C067F94DED
FILE: Tony Lowe & Alison Fleming - All of the Above - 14 Straight to the heart.flac
Size: 26719454 Hash: 730C9C9FE5FB5D1997A9358D1F28573B Accuracy: -m0
Conclusion: CDDA 100%
Signature: 21F2CBBAFD23B67ED233212DC94BF344CD3AA8A4
FILE: Tony Lowe & Alison Fleming - All of the Above - 13 Unselfish love.flac
Size: 32747668 Hash: 519D5BEDCA3D2A7A338A0C78F2582EE5 Accuracy: -m0
Conclusion: CDDA 100%
Signature: 942F01F7F9592F9AA2F5AB19080C5E8B9D2101AD
FILE: Tony Lowe & Alison Fleming - All of the Above - 12 My star and I.flac
Size: 28943644 Hash: C4D2D4236AEE6D0C802B87A8474AE514 Accuracy: -m0
Conclusion: CDDA 100%
Signature: C8428EDEB76549BBD328963CE2EB35462E95D6D3
FILE: Tony Lowe & Alison Fleming - All of the Above - 11 Indigo moon.flac
Size: 23740050 Hash: 3F4C45A3E344F8300B5CC8D3B508AE93 Accuracy: -m0
Conclusion: CDDA 100%
Signature: 03D7DB04FF3522C25DFF526905C19DE4DBF43A18
FILE: Tony Lowe & Alison Fleming - All of the Above - 10 Blue like the sky.flac
Size: 27811316 Hash: B4F6675B7D844D3544EE7125F9FAF55D Accuracy: -m0
Conclusion: CDDA 100%
Signature: 9A286CBC1C6B11D4B17DAE5090DD1593E3DDBB9E
FILE: Tony Lowe & Alison Fleming - All of the Above - 09 Find the cause.flac
Size: 34169725 Hash: 1B89DD73E64274EB9E25E3C5E5372E76 Accuracy: -m0
Conclusion: CDDA 100%
Signature: 09D2324475A809D12D7CA28B6106CFC4EB4CB479
FILE: Tony Lowe & Alison Fleming - All of the Above - 08 Green fingers.flac
Size: 42227647 Hash: 4520A65C5C09250F436B84743EF40502 Accuracy: -m0
Conclusion: CDDA 100%
Signature: A3EE84FD829BA3D42EC39427583FA4D71702D7D0
FILE: Tony Lowe & Alison Fleming - All of the Above - 07 Silver thread.flac
Size: 33331003 Hash: 9B16606FCCE195AC4960DC079CDE4355 Accuracy: -m0
Conclusion: CDDA 100%
Signature: 6F543DD16BADD5D7C50C84A7837885F8AB66B892
FILE: Tony Lowe & Alison Fleming - All of the Above - 06 Gold.flac
Size: 28206098 Hash: 9C796C39FCE9AC1B1EEAD28812C8208E Accuracy: -m0
Conclusion: CDDA 100%
Signature: 94D1EC928805E073A5A761D0806BB4C6333061A1
FILE: Tony Lowe & Alison Fleming - All of the Above - 05 If I felt that way.flac
Size: 28835359 Hash: C3A08FBAEACC0032EEA69A55FE126253 Accuracy: -m0
Conclusion: CDDA 100%
Signature: C2A0B12F58FA2E5D086BBC2266641E28585461E6
FILE: Tony Lowe & Alison Fleming - All of the Above - 04 I see light.flac
Size: 24718204 Hash: 4537C3950C60BFA9361901B5BD42A36A Accuracy: -m0
Conclusion: CDDA 100%
Signature: E9F1BA9F92FD619A00219A2BFE8207FB1B37F624
FILE: Tony Lowe & Alison Fleming - All of the Above - 03 A new tomorrow.flac
Size: 24851154 Hash: 5BE11551F367950CABCFA69BBA0F4CEE Accuracy: -m0
Conclusion: CDDA 100%
Signature: EF36828B53567E6F5CA47CBFA41705B27F5B4A39
FILE: Tony Lowe & Alison Fleming - All of the Above - 02 Spirit of the physical.flac
Size: 38093404 Hash: F54AEB3A0E7A233207A66CFBD46CC901 Accuracy: -m0
Conclusion: CDDA 99%
Signature: 512AC685B67944606BF972E1ED4BC8BF4ECB3437
FILE: Tony Lowe & Alison Fleming - All of the Above - 01 Fires keep burning.flac
Size: 37823400 Hash: BBF6FA5873003270010342FE215569CF Accuracy: -m0
Conclusion: CDDA 100%
Signature: 75C929402D319E086BDF033CD40510A5DC5933AA

DRM log

foobar2000 1.3.12 / Dynamic Range Meter 1.1.1
log date: 2018-03-17 22:19:26
--------------------------------------------------------------------------------
Analyzed: Tony Lowe & Alison Fleming / All of the Above
--------------------------------------------------------------------------------
DR Peak RMS Duration Track
--------------------------------------------------------------------------------
DR6 0.00 dB -8.35 dB 5:30 01-Fires keep burning
DR7 0.00 dB -9.45 dB 4:55 02-Spirit of the physical
DR6 0.00 dB -10.54 dB 3:19 03-A new tomorrow
DR6 -0.05 dB -9.98 dB 3:49 04-I see light
DR8 -0.05 dB -9.56 dB 4:00 05-If I felt that way
DR7 0.00 dB -11.50 dB 4:38 06-Gold
DR11 -3.00 dB -16.25 dB 4:45 07-Silver thread
DR9 0.00 dB -12.55 dB 7:17 08-Green fingers
DR8 -0.07 dB -13.51 dB 5:51 09-Find the cause
DR9 -1.05 dB -12.66 dB 4:13 10-Blue like the sky
DR12 0.00 dB -15.99 dB 4:31 11-Indigo moon
DR9 -1.92 dB -13.14 dB 4:31 12-My star and I
DR7 -1.05 dB -10.04 dB 4:57 13-Unselfish love
DR11 -1.99 dB -17.36 dB 5:21 14-Straight to the heart
DR8 -3.00 dB -14.00 dB 4:39 15-Love is here to stay
DR7 0.00 dB -10.74 dB 2:28 16-I believe in everything
--------------------------------------------------------------------------------
Number of tracks: 16
Official DR value: DR8
Samplerate: 44100 Hz
Channels: 2
Bits per sample: 16
Bitrate: 950 kbps
Codec: FLAC
================================================================================

2007 - Second Nature [01:11:12]


01. Nature of the Beast [00:04:34]
02. Darlin [00:05:06]
03. Devil's Dream [00:05:29]
04. Tapping on the Window [00:05:11]
05. Healing of the Heart [00:05:07]
06. Dancing in the Snow [00:04:41]
07. Dolphin [00:04:08]
08. Two World's Beat [00:05:07]
09. King of the World [00:03:49]
10. Private Beach [00:05:18]
11. Wants me to Dance [00:03:37]
12. Jaylene [00:05:01]
13. When Love Returns [00:04:29]
14. Queen of the World [00:03:34]
15. Moving Up [00:05:53]
Состав:
Tony Lowe - All Instruments, Vocals
Alison Fleming - Vocals
Ben Townshend - Drums on Track 6 & 9
Released January 1, 2007

Лог проверки качества

-----------------------
DON'T MODIFY THIS FILE
-----------------------
PERFORMER: auCDtect Task Manager, ver. 1.6.0 RC1 build 1.6.0.1
Copyright (c) 2008-2010 y-soft. All rights reserved
http://y-soft.org
ANALYZER: auCDtect: CD records authenticity detector, version 0.8.2
Copyright (c) 2004 Oleg Berngardt. All rights reserved.
Copyright (c) 2004 Alexander Djourik. All rights reserved.
FILE: Tony Lowe & Alison Fleming - Second Nature - 15 Moving Up.flac
Size: 33112000 Hash: C69DEF02FA49D091F689F861CD07D055 Accuracy: -m0
Conclusion: CDDA 100%
Signature: A8C6043E925B4B2D0221E4291CEBAA71E6411ED2
FILE: Tony Lowe & Alison Fleming - Second Nature - 14 Queen of the World.flac
Size: 19772693 Hash: 9B2641771622F9194049BA3A7003188F Accuracy: -m0
Conclusion: CDDA 100%
Signature: 7E8C4EF6B54E8D7F89E238B638F7B82058288937
FILE: Tony Lowe & Alison Fleming - Second Nature - 13 When Love Returns.flac
Size: 26062901 Hash: CD5C0419B8D895C2A4F64AC19C0C0E58 Accuracy: -m0
Conclusion: CDDA 100%
Signature: C7F63F6608AA30651223ABD588C7A2A731ED26BE
FILE: Tony Lowe & Alison Fleming - Second Nature - 12 Jaylene.flac
Size: 29196680 Hash: 434EDFAF8CBB90D76CC3F7E7AC460E27 Accuracy: -m0
Conclusion: CDDA 100%
Signature: A9D6A105269C9196A9C8AAC4ED5902A01844A634
FILE: Tony Lowe & Alison Fleming - Second Nature - 11 Wants me to Dance.flac
Size: 21319681 Hash: 7116ECAB66052337C455E3576BA5C70C Accuracy: -m0
Conclusion: CDDA 100%
Signature: A503516B8E1D5703D635229D9B09B537FECEF978
FILE: Tony Lowe & Alison Fleming - Second Nature - 10 Private Beach.flac
Size: 27912134 Hash: 833DC10011B0EBFDCD2EEA2330C6A340 Accuracy: -m0
Conclusion: CDDA 100%
Signature: B30B1DB8AC313D920F2217E12E4B29221028F045
FILE: Tony Lowe & Alison Fleming - Second Nature - 09 King of the World.flac
Size: 23180579 Hash: DFB93AEE03BC94B2012AF539FA089FC2 Accuracy: -m0
Conclusion: CDDA 100%
Signature: 7E4798096B9CDFBDFF65EA7117C700AECC63CBB7
FILE: Tony Lowe & Alison Fleming - Second Nature - 08 Two World's Beat.flac
Size: 27562142 Hash: 532F7EC638B964851F4A3D0CF9154255 Accuracy: -m0
Conclusion: CDDA 99%
Signature: 0E83BC0CF0DB67E143A532E7D0B1BB71C7398263
FILE: Tony Lowe & Alison Fleming - Second Nature - 07 Dolphin.flac
Size: 25801612 Hash: D46B7232D1A6E1326C15718C88881C56 Accuracy: -m0
Conclusion: CDDA 100%
Signature: ACAAB10E136C63E6A10CD51AC2682B4048F6917F
FILE: Tony Lowe & Alison Fleming - Second Nature - 06 Dancing in the Snow.flac
Size: 29310858 Hash: 8FC594A54E25097986F9D47BD1E1D873 Accuracy: -m0
Conclusion: CDDA 100%
Signature: EBC64D11F7F1290B9005F01E3A447C26A6D0C0F9
FILE: Tony Lowe & Alison Fleming - Second Nature - 05 Healing of the Heart.flac
Size: 27752322 Hash: 651F661D00919F8CF7E71EFBAFE0780E Accuracy: -m0
Conclusion: CDDA 100%
Signature: F883A9C344841363D906F43F97A57028DD76B5C2
FILE: Tony Lowe & Alison Fleming - Second Nature - 04 Tapping on the Window.flac
Size: 33453342 Hash: 4737A0A3D78739EDE7C1BC79E09644CC Accuracy: -m0
Conclusion: CDDA 100%
Signature: 9B1F624E196F7E87631C6BF748313409E2630775
FILE: Tony Lowe & Alison Fleming - Second Nature - 03 Devil's Dream.flac
Size: 34556645 Hash: F77067F0AE729E63E4E493827B24CF81 Accuracy: -m0
Conclusion: CDDA 100%
Signature: 6934ED10A9F72688581A680899A6B6BC0D57DF66
FILE: Tony Lowe & Alison Fleming - Second Nature - 02 Darlin.flac
Size: 30348063 Hash: C0E1A6146165A9AF323AD7FFA94ACD7F Accuracy: -m0
Conclusion: CDDA 100%
Signature: 65D6D423D6D98DD88D7BDABAC96D68B81D1C4558
FILE: Tony Lowe & Alison Fleming - Second Nature - 01 Nature of the Beast.flac
Size: 30316013 Hash: C3D798E33159869FB5858C112C137864 Accuracy: -m0
Conclusion: CDDA 99%
Signature: EE33E5AA66FDC6A6B9C3C274CAEAE873F9812346

DRM log

foobar2000 1.3.12 / Dynamic Range Meter 1.1.1
log date: 2018-03-17 22:23:21
--------------------------------------------------------------------------------
Analyzed: Tony Lowe & Alison Fleming / Second Nature
--------------------------------------------------------------------------------
DR Peak RMS Duration Track
--------------------------------------------------------------------------------
DR11 -0.27 dB -13.38 dB 4:35 01-Nature of the Beast
DR10 -1.09 dB -14.38 dB 5:06 02-Darlin
DR9 -1.28 dB -12.68 dB 5:29 03-Devil's Dream
DR11 -0.20 dB -12.44 dB 5:12 04-Tapping on the Window
DR11 -1.52 dB -14.64 dB 5:08 05-Healing of the Heart
DR12 -0.89 dB -14.80 dB 4:41 06-Dancing in the Snow
DR12 -1.05 dB -14.81 dB 4:09 07-Dolphin
DR11 -1.24 dB -15.57 dB 5:07 08-Two World's Beat
DR10 -0.61 dB -12.32 dB 3:50 09-King of the World
DR10 -3.67 dB -16.74 dB 5:18 10-Private Beach
DR9 -1.50 dB -14.60 dB 3:37 11-Wants me to Dance
DR13 -0.90 dB -15.32 dB 5:02 12-Jaylene
DR10 -0.49 dB -13.05 dB 4:30 13-When Love Returns
DR11 -1.27 dB -16.42 dB 3:35 14-Queen of the World
DR9 -1.36 dB -14.22 dB 5:54 15-Moving Up
--------------------------------------------------------------------------------
Number of tracks: 15
Official DR value: DR11
Samplerate: 44100 Hz
Channels: 2
Bits per sample: 16
Bitrate: 746 kbps
Codec: FLAC
================================================================================

2014 - Human Sleeping - Dreams 1 to 8 [51:56]


01. Mystery [00:06:32]
02. Something's Going On [00:05:54]
03. Human Rising [00:05:46]
04. Silent Spring [00:04:38]
05. Falling [00:05:20]
06. The Visitor [00:04:46]
07. The Dream Corridor [00:11:54]
08. Human Sleeping [00:07:04]
Released July 1, 2014
Состав:
Tony Lowe - All Instruments
Alison Fleming - Vocals

Лог проверки качества

-----------------------
DON'T MODIFY THIS FILE
-----------------------
PERFORMER: auCDtect Task Manager, ver. 1.6.0 RC1 build 1.6.0.1
Copyright (c) 2008-2010 y-soft. All rights reserved
http://y-soft.org
ANALYZER: auCDtect: CD records authenticity detector, version 0.8.2
Copyright (c) 2004 Oleg Berngardt. All rights reserved.
Copyright (c) 2004 Alexander Djourik. All rights reserved.
FILE: 08. Human Sleeping.flac
Size: 42459104 Hash: CF4925B2DDBE85FFEBF17CA3E3D1EA33 Accuracy: -m0
Conclusion: CDDA 100%
Signature: 2EC0237AB317FDF630BB14EF125DED8BCDCA9BD1
FILE: 07. The Dream Corridor.flac
Size: 71445570 Hash: 0AE423BD320549389476A8D8791888F3 Accuracy: -m0
Conclusion: CDDA 100%
Signature: 57E930BFC1E6869EBA0B7E3ADD242FD985B040B0
FILE: 06. The Visitor.flac
Size: 32609991 Hash: 52570256437EA5AE3E18CA239C4C6F45 Accuracy: -m0
Conclusion: CDDA 100%
Signature: 283DDCEB45188751D70C41398A6F7F432CFD4520
FILE: 05. Falling.flac
Size: 35369851 Hash: B54DB083ED5C5C6683A002172D851C97 Accuracy: -m0
Conclusion: CDDA 100%
Signature: 810C32C6D80B880FD8E11CA6001E12268D6CA7FA
FILE: 04. Silent Spring.flac
Size: 31480266 Hash: 3CFADCDD66BC7BB988D1E337C94F5A6C Accuracy: -m0
Conclusion: CDDA 100%
Signature: ACD542F7CEC8AA5488AEED8275E6D4482E1D4265
FILE: 03. Human Rising.flac
Size: 41457166 Hash: 30173973C70A0CA60343907DE78EB5E8 Accuracy: -m0
Conclusion: CDDA 100%
Signature: F02B441ADB0FAB8768F88AC9E2B5CECDF4EC0FA4
FILE: 02. Something's Going On.flac
Size: 41581648 Hash: 738C0AB283196AB42F1DAA04D244DC10 Accuracy: -m0
Conclusion: CDDA 100%
Signature: 74ED8DF8FBA3D08B6E0F730A3C32B4914FA863FC
FILE: 01. Mystery.flac
Size: 44442920 Hash: 208D3D30FCFE824130A85B62EB9D452F Accuracy: -m0
Conclusion: CDDA 100%
Signature: 99B251B929C07AA25D7230C0B006CC1CEB079072

DRM log

foobar2000 1.3.12 / Dynamic Range Meter 1.1.1
log date: 2018-03-17 20:12:36
--------------------------------------------------------------------------------
Analyzed: Tony Lowe & Alison Fleming / Human Sleeping - Dreams 1 to 8
--------------------------------------------------------------------------------
DR Peak RMS Duration Track
--------------------------------------------------------------------------------
DR11 -0.06 dB -13.09 dB 6:32 01-Mystery
DR11 -0.09 dB -13.57 dB 5:55 02-Something's Going On
DR9 -0.09 dB -12.29 dB 5:47 03-Human Rising
DR12 -0.12 dB -14.08 dB 4:38 04-Silent Spring
DR11 -0.58 dB -14.30 dB 5:20 05-Falling
DR11 0.00 dB -12.74 dB 4:47 06-The Visitor
DR12 0.00 dB -14.95 dB 11:54 07-The Dream Corridor
DR11 -0.49 dB -15.68 dB 7:05 08-Human Sleeping
--------------------------------------------------------------------------------
Number of tracks: 8
Official DR value: DR11
Samplerate: 44100 Hz
Channels: 2
Bits per sample: 16
Bitrate: 797 kbps
Codec: FLAC
================================================================================

Все благодарности за альбомы: "All of the Above" (2005) и "Second Nature" (2007) адресуются уважаемому Olaf_alien
[cybertorrent.ru].t41872.torrent 
Торрент: Зарегистрирован [ 2018-03-19 19:00 ] · F387CC3CDBF8D52D3C94D3B1CDCF70497C4DE6E5

Скачать .torrent

Скачать

18 KB

Статус: проверено
Скачан: 0 раз
Размер: 1,16 GB
Профиль [ЛС]
Показать сообщения:    

Текущее время: 22-Апр 15:58

Часовой пояс: UTC ± 0



Вы не можете начинать темы
Вы не можете отвечать на сообщения
Вы не можете редактировать свои сообщения
Вы не можете удалять свои сообщения
Вы не можете голосовать в опросах
Вы не можете прикреплять файлы к сообщениям
Вы можете скачивать файлы