Статистика раздачи
Размер:  839 MB   |    Зарегистрирован:  1 месяц 4 дня   |    Скачан:  0 раз

Полного источника не было: Никогда

 
   
 
 

Катюшка ®

Пол:
Не указан
Стаж:
2 месяца 9 дней
Сообщений:
288

Resistor - Underground
Жанр: Crossover Prog
Носитель: CD
Год выпуска диска: 2017
Страна: United States
Производитель диска: Resistor (Self)
Аудио кодек: FLAC
Тип рипа: tracks+.cue
Битрейт аудио: lossless
Продолжительность: 77:31 (01:17:31)
источник: bzp01
Наличие сканов в содержимом раздачи:
Трэклист:
01. Arrival (7:45)
02. Cathedral (4:02)
03. Wire (3:30)
04. Killers and Activists (4:12)
05. Discovery (7:01)
06. Running into Walls (6:04)
07. Atonement (5:35)
08. Transcendence (6:03)
09. Blackout (9:07)
10. Halls of Home (24:12)
Состав:
- Steve Unruh / guitar, vocals, violin, flute
- Rob Winslow / bass guitar
- Barry Farrands / drums, backing vocals
- Fran Turner / guitar
Доп. информация: http://www.progarchives.com/artist.asp?id=5620

Отчёт EAC

Exact Audio Copy V1.0 beta 3 from 29. August 2011
EAC extraction logfile from 21. August 2017, 17:51
Resistor / Underground
Used drive : MATSHITADVD+-RW UJ8E2 Adapter: 0 ID: 0
Read mode : Secure
Utilize accurate stream : Yes
Defeat audio cache : Yes
Make use of C2 pointers : No
Read offset correction : 103
Overread into Lead-In and Lead-Out : No
Fill up missing offset samples with silence : Yes
Delete leading and trailing silent blocks : No
Null samples used in CRC calculations : Yes
Used interface : Native Win32 interface for Win NT & 2000
Gap handling : Appended to previous track
Used output format : User Defined Encoder
Selected bitrate : 768 kBit/s
Quality : High
Add ID3 tag : No
Command line compressor : C:\Program Files (x86)\Exact Audio Copy\FLAC\FLAC.EXE
Additional command line options : -8 -V -T "ARTIST=%artist%" -T "TITLE=%title%" -T "ALBUM=%albumtitle%" -T "DATE=%year%" -T "TRACKNUMBER=%tracknr%" -T "TOTALTRACKS=%numtracks%" -T "GENRE=%genre%" -T "ALBUMARTIST=%albumartist%" -T "ALBUM ARTIST=%albumartist%" -T "COMMENT=EAC Secure Mode, Test & Copy, AccurateRip, FLAC -8" %source%
TOC of the extracted CD
Track | Start | Length | Start sector | End sector
---------------------------------------------------------
1 | 0:00.00 | 7:44.74 | 0 | 34873
2 | 7:44.74 | 4:02.30 | 34874 | 53053
3 | 11:47.29 | 3:30.33 | 53054 | 68836
4 | 15:17.62 | 4:11.37 | 68837 | 87698
5 | 19:29.24 | 7:00.73 | 87699 | 119271
6 | 26:30.22 | 6:03.62 | 119272 | 146558
7 | 32:34.09 | 5:34.51 | 146559 | 171659
8 | 38:08.60 | 6:03.30 | 171660 | 198914
9 | 44:12.15 | 9:07.12 | 198915 | 239951
10 | 53:19.27 | 24:11.55 | 239952 | 348831
Track 1
Filename C:\bzp01\Resistor - Underground (2017) {FLAC}\01 - Arrival.wav
Pre-gap length 0:00:02.00
Peak level 95.0 %
Extraction speed 2.9 X
Track quality 100.0 %
Test CRC 171248D2
Copy CRC 171248D2
Accurately ripped (confidence 3) [014E71CB] (AR v2)
Copy OK
Track 2
Filename C:\bzp01\Resistor - Underground (2017) {FLAC}\02 - Cathedral.wav
Peak level 95.0 %
Extraction speed 3.1 X
Track quality 100.0 %
Test CRC BA6F3DC7
Copy CRC BA6F3DC7
Accurately ripped (confidence 3) [682C8059] (AR v2)
Copy OK
Track 3
Filename C:\bzp01\Resistor - Underground (2017) {FLAC}\03 - Wire.wav
Peak level 95.0 %
Extraction speed 3.1 X
Track quality 100.0 %
Test CRC EC6804DE
Copy CRC EC6804DE
Accurately ripped (confidence 3) [5B00641A] (AR v2)
Copy OK
Track 4
Filename C:\bzp01\Resistor - Underground (2017) {FLAC}\04 - Killers And Activists.wav
Peak level 95.0 %
Extraction speed 3.4 X
Track quality 100.0 %
Test CRC 27762E59
Copy CRC 27762E59
Accurately ripped (confidence 3) [9EEBF562] (AR v2)
Copy OK
Track 5
Filename C:\bzp01\Resistor - Underground (2017) {FLAC}\05 - Discovery.wav
Peak level 95.0 %
Extraction speed 3.2 X
Track quality 99.9 %
Test CRC F528B516
Copy CRC F528B516
Accurately ripped (confidence 3) [BFA44B6A] (AR v2)
Copy OK
Track 6
Filename C:\bzp01\Resistor - Underground (2017) {FLAC}\06 - Running Into Walls.wav
Peak level 95.0 %
Extraction speed 4.1 X
Track quality 100.0 %
Test CRC 708004E7
Copy CRC 708004E7
Accurately ripped (confidence 3) [A2FFE7D5] (AR v2)
Copy OK
Track 7
Filename C:\bzp01\Resistor - Underground (2017) {FLAC}\07 - Atonement.wav
Peak level 95.0 %
Extraction speed 4.3 X
Track quality 100.0 %
Test CRC BCDC19CE
Copy CRC BCDC19CE
Accurately ripped (confidence 3) [EBF46841] (AR v2)
Copy OK
Track 8
Filename C:\bzp01\Resistor - Underground (2017) {FLAC}\08 - Transcendence.wav
Peak level 95.0 %
Extraction speed 4.6 X
Track quality 100.0 %
Test CRC DCBD6F9D
Copy CRC DCBD6F9D
Accurately ripped (confidence 3) [79FD2F51] (AR v2)
Copy OK
Track 9
Filename C:\bzp01\Resistor - Underground (2017) {FLAC}\09 - Blackout.wav
Peak level 95.0 %
Extraction speed 5.0 X
Track quality 100.0 %
Test CRC CF12F57D
Copy CRC CF12F57D
Accurately ripped (confidence 3) [4BD68BE0] (AR v2)
Copy OK
Track 10
Filename C:\bzp01\Resistor - Underground (2017) {FLAC}\10 - Halls Of Home.wav
Peak level 95.0 %
Extraction speed 5.9 X
Track quality 100.0 %
Test CRC C7BA158A
Copy CRC C7BA158A
Accurately ripped (confidence 3) [4198DBA4] (AR v2)
Copy OK
All tracks accurately ripped
No errors occurred
End of status report
==== Log checksum 0C6ECD640DE6247CE6DA8B53C9D313CF8C42A9E609A2BAA45E9248CDF01F45DB ====

.cue

REM GENRE "Progressive Rock"
REM DATE 2017
REM DISCID 89122B0A
REM COMMENT "ExactAudioCopy v1.0b3"
PERFORMER "Resistor"
TITLE "Underground"
FILE "01 - Arrival.wav" WAVE
TRACK 01 AUDIO
TITLE "Arrival"
PERFORMER "Resistor"
INDEX 01 00:00:00
FILE "02 - Cathedral.wav" WAVE
TRACK 02 AUDIO
TITLE "Cathedral"
PERFORMER "Resistor"
INDEX 01 00:00:00
FILE "03 - Wire.wav" WAVE
TRACK 03 AUDIO
TITLE "Wire"
PERFORMER "Resistor"
INDEX 01 00:00:00
FILE "04 - Killers And Activists.wav" WAVE
TRACK 04 AUDIO
TITLE "Killers And Activists"
PERFORMER "Resistor"
INDEX 01 00:00:00
FILE "05 - Discovery.wav" WAVE
TRACK 05 AUDIO
TITLE "Discovery"
PERFORMER "Resistor"
INDEX 01 00:00:00
FILE "06 - Running Into Walls.wav" WAVE
TRACK 06 AUDIO
TITLE "Running Into Walls"
PERFORMER "Resistor"
INDEX 01 00:00:00
FILE "07 - Atonement.wav" WAVE
TRACK 07 AUDIO
TITLE "Atonement"
PERFORMER "Resistor"
INDEX 01 00:00:00
FILE "08 - Transcendence.wav" WAVE
TRACK 08 AUDIO
TITLE "Transcendence"
PERFORMER "Resistor"
INDEX 01 00:00:00
FILE "09 - Blackout.wav" WAVE
TRACK 09 AUDIO
TITLE "Blackout"
PERFORMER "Resistor"
INDEX 01 00:00:00
FILE "10 - Halls Of Home.wav" WAVE
TRACK 10 AUDIO
TITLE "Halls Of Home"
PERFORMER "Resistor"
INDEX 01 00:00:00

CueTools

[CUETools log; Date: 2018.03.17. 1:55:29; Version: 2.1.6]
[CTDB TOCID: HoJNtWEM88TzlGy4MT1EsYwUCMM-] found.
Track | CTDB Status
1 | (4/4) Accurately ripped
2 | (4/4) Accurately ripped
3 | (4/4) Accurately ripped
4 | (4/4) Accurately ripped
5 | (4/4) Accurately ripped
6 | (4/4) Accurately ripped
7 | (4/4) Accurately ripped
8 | (4/4) Accurately ripped
9 | (4/4) Accurately ripped
10 | (4/4) Accurately ripped
[AccurateRip ID: 00166cd6-00b86506-89122b0a] found.
Track [ CRC | V2 ] Status
01 [079efecb|014e71cb] (0+4/4) Accurately ripped
02 [55c94aa4|682c8059] (0+4/4) Accurately ripped
03 [ad9b9ef5|5b00641a] (0+4/4) Accurately ripped
04 [aea66d3d|9eebf562] (0+4/4) Accurately ripped
05 [65738b98|bfa44b6a] (0+4/4) Accurately ripped
06 [6c004c97|a2ffe7d5] (0+4/4) Accurately ripped
07 [576ba862|ebf46841] (0+4/4) Accurately ripped
08 [edde53a3|79fd2f51] (0+4/4) Accurately ripped
09 [45ddf67b|4bd68be0] (0+4/4) Accurately ripped
10 [f795021c|4198dba4] (0+4/4) Accurately ripped
Track Peak [ CRC32 ] [W/O NULL] [ LOG ]
-- 95,0 [FC2CCA95] [DACA50C0]
01 95,0 [171248D2] [3B70BB37] CRC32
02 95,0 [BA6F3DC7] [AAB8B3EF] CRC32
03 95,0 [EC6804DE] [F4C0EB3F] CRC32
04 95,0 [27762E59] [276A2E1A] CRC32
05 95,0 [F528B516] [8E2B553A] CRC32
06 95,0 [708004E7] [5305FC62] CRC32
07 95,0 [BCDC19CE] [1F65AF7C] CRC32
08 95,0 [DCBD6F9D] [409F0915] CRC32
09 95,0 [CF12F57D] [C03BC429] CRC32
10 95,0 [C7BA158A] [F1857FCC] CRC32
[cybertorrent.ru].t41877.torrent 
Торрент: Зарегистрирован [ 2018-03-19 19:00 ] · 6A301B6ED40A12E9A4EE4433FD55A3CAFCBEC821

Скачать .torrent

Скачать

72 KB

Статус: проверено
Скачан: 0 раз
Размер: 839 MB
Профиль [ЛС]
Показать сообщения:    

Текущее время: 24-Апр 14:15

Часовой пояс: UTC ± 0



Вы не можете начинать темы
Вы не можете отвечать на сообщения
Вы не можете редактировать свои сообщения
Вы не можете удалять свои сообщения
Вы не можете голосовать в опросах
Вы не можете прикреплять файлы к сообщениям
Вы можете скачивать файлы