Статистика раздачи
Размер:  593 MB   |    Зарегистрирован:  1 месяц 4 дня   |    Скачан:  0 раз

Полного источника не было: Никогда

 
   
 
 

torrents.pl ®

Пол:
Не указан
Стаж:
2 месяца 8 дней
Сообщений:
93

The Thirteenth Sun - Discography
Жанр: Avantgarde/Progressive Metal
Носитель: CD
Год издания: 2017
Издатель (лейбл): Aural Music
Страна исполнителя (группы): Romania
Аудиокодек: FLAC (*.flac)
Тип рипа: image+.cue
Битрейт аудио: lossless
Продолжительность: 1:14:32
Источник (релизер): Собственные рипы
Наличие сканов в содержимом раздачи: да
-

2017 Genesis (EP) [Aural Music AURA025]

Треклист:
01. Comprehension (07:47)
02. Glance Into The Vastness (05:34)
03. Torment Of Existence (07:14)
04. Epsilon Eridani (04:45)

Лог создания рипа

Exact Audio Copy V1.3 from 2. September 2016
EAC extraction logfile from 8. November 2017, 21:00
The Thirteenth Sun / Genesis
Used drive : ASUS DRW-24B3ST Adapter: 1 ID: 0
Read mode : Secure
Utilize accurate stream : Yes
Defeat audio cache : Yes
Make use of C2 pointers : No
Read offset correction : 6
Overread into Lead-In and Lead-Out : No
Fill up missing offset samples with silence : Yes
Delete leading and trailing silent blocks : No
Null samples used in CRC calculations : Yes
Used interface : Native Win32 interface for Win NT & 2000
Used output format : User Defined Encoder
Selected bitrate : 1024 kBit/s
Quality : High
Add ID3 tag : No
Command line compressor : C:\Program Files (x86)\Exact Audio Copy\FLAC\FLAC.EXE
Additional command line options : -V -8 -T "Date=%year%" -T "Genre=%genre%" %source%
TOC of the extracted CD
Track | Start | Length | Start sector | End sector
---------------------------------------------------------
1 | 0:00.00 | 7:47.15 | 0 | 35039
2 | 7:47.15 | 5:33.42 | 35040 | 60056
3 | 13:20.57 | 7:14.25 | 60057 | 92631
4 | 20:35.07 | 4:44.74 | 92632 | 114005
Range status and errors
Selected range
Filename D:\mekong\The Thirteenth Sun - Genesis.wav
Peak level 100.0 %
Extraction speed 4.8 X
Range quality 100.0 %
Test CRC BA88D00D
Copy CRC BA88D00D
Copy OK
No errors occurred
AccurateRip summary
Track 1 not present in database
Track 2 not present in database
Track 3 not present in database
Track 4 not present in database
None of the tracks are present in the AccurateRip database
End of status report
---- CUETools DB Plugin V2.1.6
[CTDB TOCID: jAI_IFXL3cQIvDXqjqI1.uinC3o-] found
Submit result: already submitted
Track | CTDB Status
1 | (1/1) Accurately ripped
2 | (1/1) Accurately ripped
3 | (1/1) Accurately ripped
4 | (1/1) Accurately ripped
==== Log checksum 6D3DAC5EC35A61D8E9D05559EFE9A540F76FDF9F9E4C5CC68A5229EDFFC15997 ====

Об альбоме (сборнике)

The first EP, originally self-released in late 2012.
2017 reprint by Aural Music in Digisleeve CD format.

2017 Stardust [Aural Music AURA024]

Треклист:
01. Universus (6:13)
02. Pathways (6:21)
03. Planes Of Creation (6:15)
04. Universe Is Burning (9:07)
05. Melting Skies (8:14)
06. The Fabric Of Time (7:30)
07. Glowing Sun (5:33)

Лог создания рипа

Exact Audio Copy V1.3 from 2. September 2016
EAC extraction logfile from 8. November 2017, 22:09
The Thirteenth Sun / Stardust
Used drive : ASUS DRW-24B3ST Adapter: 1 ID: 0
Read mode : Secure
Utilize accurate stream : Yes
Defeat audio cache : Yes
Make use of C2 pointers : No
Read offset correction : 6
Overread into Lead-In and Lead-Out : No
Fill up missing offset samples with silence : Yes
Delete leading and trailing silent blocks : No
Null samples used in CRC calculations : Yes
Used interface : Native Win32 interface for Win NT & 2000
Used output format : User Defined Encoder
Selected bitrate : 1024 kBit/s
Quality : High
Add ID3 tag : No
Command line compressor : C:\Program Files (x86)\Exact Audio Copy\FLAC\FLAC.EXE
Additional command line options : -V -8 -T "Date=%year%" -T "Genre=%genre%" %source%
TOC of the extracted CD
Track | Start | Length | Start sector | End sector
---------------------------------------------------------
1 | 0:00.00 | 6:12.58 | 0 | 27957
2 | 6:12.58 | 6:21.19 | 27958 | 56551
3 | 12:34.02 | 6:15.07 | 56552 | 84683
4 | 18:49.09 | 9:06.46 | 84684 | 125679
5 | 27:55.55 | 8:14.13 | 125680 | 162742
6 | 36:09.68 | 7:30.23 | 162743 | 196515
7 | 43:40.16 | 5:32.43 | 196516 | 221458
Range status and errors
Selected range
Filename D:\mekong\The Thirteenth Sun - Stardust.wav
Peak level 97.1 %
Extraction speed 5.6 X
Range quality 99.9 %
Test CRC DB035C2E
Copy CRC DB035C2E
Copy OK
No errors occurred
AccurateRip summary
Track 1 not present in database
Track 2 not present in database
Track 3 not present in database
Track 4 not present in database
Track 5 not present in database
Track 6 not present in database
Track 7 not present in database
None of the tracks are present in the AccurateRip database
End of status report
---- CUETools DB Plugin V2.1.6
[CTDB TOCID: smOTNhGP6Zs2NGpriZ7JkMcn8N0-] found
Submit result: smOTNhGP6Zs2NGpriZ7JkMcn8N0- has been confirmed
Track | CTDB Status
1 | (1/1) Accurately ripped
2 | (1/1) Accurately ripped
3 | (1/1) Accurately ripped
4 | (1/1) Accurately ripped
5 | (1/1) Accurately ripped
6 | (1/1) Accurately ripped
7 | (1/1) Accurately ripped
==== Log checksum E97E0D77ED54BE3E7C8BCF955F5BDD6DD1BCE047866CBE9563D6B172E71DB2FB ====

Об альбоме (сборнике)

With "Stardust", The Thirteenth Sun does a fantastic job of bridging the gap between progressive metal and prog rock while also maintaining that sense of mystique and atmosphere typical of Transilvanian metal.
There are elements that channel the sweeping beauty and complexity of 70s prog, heavier riffing that brings earlier Opeth and even a little of Arcturus’ spacey sound to mind.
Produced by Edmond Karban (Negura Bunget, Dordeduh) , Artwork by Costin Chioreanu (Ulver, Arcturus, Enslaved, Arch Enemy).
-

Состав

Septimiu Hărşan - Drums
Marius Muntean - Keyboards, Vocals (backing)
Radu Barna - Vocals, Guitars
Marius Licu - Guitars
Alecu - Bass
[cybertorrent.ru].t41889.torrent 
Торрент: Зарегистрирован [ 2018-03-19 19:00 ] · 0F73B3BDC72D4CECF23DD1116ADEB5CFCD250599

Скачать .torrent

Скачать

13 KB

Статус: проверено
Скачан: 0 раз
Размер: 593 MB
Профиль [ЛС]
Показать сообщения:    

Текущее время: 24-Апр 04:50

Часовой пояс: UTC ± 0



Вы не можете начинать темы
Вы не можете отвечать на сообщения
Вы не можете редактировать свои сообщения
Вы не можете удалять свои сообщения
Вы не можете голосовать в опросах
Вы не можете прикреплять файлы к сообщениям
Вы можете скачивать файлы