Статистика раздачи
Размер:  300 MB   |    Зарегистрирован:  1 месяц 4 дня   |    Скачан:  0 раз

Полного источника не было: Никогда

 
   
 
 

Катюшка ®

Пол:
Не указан
Стаж:
2 месяца 9 дней
Сообщений:
288

Tony Banks / Five
Жанр: Orchestral/Symphony
Носитель: WEB
Страна-производитель диска (релиза): Europe
Год издания: 2018
Страна исполнителя (группы): United Kingdom
Аудиокодек: FLAC (*.flac)
Тип рипа: image+.cue
Битрейт аудио: lossless
Продолжительность: 57:51
Источник (релизер): https://allflac.com/album/341265
Наличие сканов в содержимом раздачи: нет
Треклист:
1. Prelude to a Million Years (15:34)
2. Reveille (8:58)
3. Ebb and Flow (12:49)
4. Autumn Sonata (10:16)
5. Renaissance (10:14)
Не верьте прогархивам - этот альбом в чистом виде симфонический прог (с чешским национальным симфоническим оркестром). Хоть я и недолюбливаю симфо-прог (занудно чаще всего), но этот альбом после прослушивания в mp3 решил сразу же купить в lossless, ибо дюже хорош

Содержание индексной карты (.CUE)

REM COMMENT "CUETools generated dummy CUE sheet"
PERFORMER "Tony Banks"
TITLE "Five"
REM DATE 2018
REM DISCNUMBER 1
REM TOTALDISCS 1
FILE "Tony Banks – Five.flac" WAVE
TRACK 01 AUDIO
PERFORMER "Tony Banks"
TITLE "Prelude to a Million Years"
INDEX 01 00:00:00
TRACK 02 AUDIO
PERFORMER "Tony Banks"
TITLE "Reveille"
INDEX 01 15:34:54
TRACK 03 AUDIO
PERFORMER "Tony Banks"
TITLE "Ebb and Flow"
INDEX 01 24:33:68
TRACK 04 AUDIO
PERFORMER "Tony Banks"
TITLE "Autumn Sonata"
INDEX 01 37:24:29
TRACK 05 AUDIO
PERFORMER "Tony Banks"
TITLE "Renaissance"
INDEX 01 47:40:10

Лог проверки качества

-----------------------
DON'T MODIFY THIS FILE
-----------------------
PERFORMER: auCDtect Task Manager, ver. 1.6.0 RC1 build 1.6.0.1
Copyright (c) 2008-2010 y-soft. All rights reserved
http://y-soft.org
ANALYZER: auCDtect: CD records authenticity detector, version 0.8.2
Copyright (c) 2004 Oleg Berngardt. All rights reserved.
Copyright (c) 2004 Alexander Djourik. All rights reserved.
FILE: Tony Banks – Five.flac
Size: 314946944 Hash: 4C35B14FD30549713A5FE43C502FFD4C Accuracy: -m0
Conclusion: CDDA 100%
Signature: 8F3766F8BB86299478C7AB6FF1E3F41517884E3F

Об исполнителе (группе)

http://www.progarchives.com/album.asp?id=56411
[cybertorrent.ru].t41890.torrent 
Торрент: Зарегистрирован [ 2018-03-19 19:00 ] · 31ACA64E4A78FCE5C80742DDC3968EFE6A75B1DB

Скачать .torrent

Скачать

12 KB

Статус: проверено
Скачан: 0 раз
Размер: 300 MB
Профиль [ЛС]
Показать сообщения:    

Текущее время: 24-Апр 14:05

Часовой пояс: UTC ± 0



Вы не можете начинать темы
Вы не можете отвечать на сообщения
Вы не можете редактировать свои сообщения
Вы не можете удалять свои сообщения
Вы не можете голосовать в опросах
Вы не можете прикреплять файлы к сообщениям
Вы можете скачивать файлы