Статистика раздачи
Размер:  2,35 GB   |    Зарегистрирован:  2 месяца 3 дня   |    Скачан:  0 раз

Полного источника не было: Никогда

 
   
 
 

agent ®

Пол:
Не указан
Стаж:
3 месяца 6 дней
Сообщений:
331

Арена для убийства
Год выпуска: 2018
Производство: Леандра Продакшн
Жанр: детектив, криминал, мелодрама
Продолжительность: ~00:46:00 серия
Субтитры: нет
Режиссёр: Дмитрий Аверин
В ролях: Алиса Лозовская, Татьяна Чердынцева, Евгений Сидихин, Артём Карасёв, Ян Цапник, Игорь Лепихин, Макар Кусакин, Данила Воропаев, Игорь Ботвин, Роман Жилкин, Петр Харченко
Описание: Воздушная гимнастка Полина узнает, что получила в наследство от таинственного поклонника загородный дом. Однако сироте, выросшей в детском доме, неожиданное богатство не приносит особой радости. Сначала она ссорится с лучшей подругой, иллюзионисткой Аглаей, жених которой, красавец силач Герман, начинает ухаживать за новоиспеченной "принцессой цирка". Потом кто-то убивает Германа, а под подозрение в его убийстве попадает Аглая. Полина, не поверив в виновность подруги, решает сама найти преступника. Однако вскоре гимнастка срывается из-под купола и серьезно травмируется. И тут жизнь преподносит девушке сюрприз: в ее жизни появляется отец, который совсем недавно узнал о существовании дочери...
Реклама: Нет.
Кинопоиск
Все раздачи сериала
Sample
Качество: WEBRip - Files-x
Формат: AVI
Видео кодек: XviD
Аудио кодек: AC3
Видео: 720x400 (1.80:1), 24 fps, XviD build 73 ~1600 kbps avg, 0.233 bit/pixel
Аудио: 48.0 kHz, AC3 Dolby Digital, 2/0 (L,R) ch, ~ 192 kbps

MI

General
Complete name : D:\Арена для убийства.2017.WEB-DLRip.Files-x\01.Арена для убийства.2017.WEB-DLRip.Files-x.avi
Format : AVI
Format/Info : Audio Video Interleave
File size : 601 MiB
Duration : 46mn 20s
Overall bit rate : 1 814 Kbps
Writing application : VirtualDubMod 1.5.10.3 | www.virtualdub-fr.org || (build 2550/release)
Writing library : VirtualDubMod build 2550/release
Video
ID : 0
Format : MPEG-4 Visual
Format profile : Advanced Simple@L5
Format settings, BVOP : 1
Format settings, QPel : No
Format settings, GMC : No warppoints
Format settings, Matrix : Custom
Codec ID : XVID
Codec ID/Hint : XviD
Duration : 46mn 20s
Bit rate : 1 613 Kbps
Width : 720 pixels
Height : 400 pixels
Display aspect ratio : 16:9
Frame rate : 24.000 fps
Color space : YUV
Chroma subsampling : 4:2:0
Bit depth : 8 bits
Scan type : Progressive
Compression mode : Lossy
Bits/(Pixel*Frame) : 0.233
Stream size : 535 MiB (89%)
Writing library : XviD 73
Audio
ID : 1
Format : AC-3
Format/Info : Audio Coding 3
Mode extension : CM (complete main)
Format settings, Endianness : Big
Codec ID : 2000
Duration : 46mn 20s
Bit rate mode : Constant
Bit rate : 192 Kbps
Channel count : 2 channels
Channel positions : Front: L R
Sampling rate : 48.0 KHz
Bit depth : 16 bits
Compression mode : Lossy
Stream size : 63.6 MiB (11%)
Alignment : Split accross interleaves
Interleave, duration : 42 ms (1.00 video frame)
Interleave, preload duration : 500 ms

Скриншоты


[cybertorrent.ru].t41891.torrent 
Торрент: Зарегистрирован [ 2018-03-19 19:00 ] · BAE83B5E49C6DB136E058DA6A369A8485C3DB5A5

Скачать .torrent

Скачать

13 KB

Статус: проверено
Скачан: 0 раз
Размер: 2,35 GB
Профиль [ЛС]
Показать сообщения:    

Текущее время: 22-Май 23:29

Часовой пояс: UTC ± 0



Вы не можете начинать темы
Вы не можете отвечать на сообщения
Вы не можете редактировать свои сообщения
Вы не можете удалять свои сообщения
Вы не можете голосовать в опросах
Вы не можете прикреплять файлы к сообщениям
Вы можете скачивать файлы