Статистика раздачи
Размер:  274 MB   |    Зарегистрирован:  1 месяц 4 дня   |    Скачан:  0 раз

Полного источника не было: Никогда

 
   
 
 

craft ®

Пол:
Не указан
Стаж:
2 месяца 9 дней
Сообщений:
432

Mute - Mute
Жанр: Hard Rock
Носитель: CD
Страна-производитель диска: Japan
Год издания: 1995
Издатель: ZERO CORPORATION
Номер по каталогу: XRCN-1220
Страна группы: USA
Аудиокодек: FLAC (*.flac)
Тип рипа: image+.cue
Битрейт аудио: lossless
Продолжительность: 00:38:15
Релизер: alzal
Наличие сканов в содержимом раздачи: да
Треклист:
01. Nothing Like Me 4:30
02. Too Close To The Flame 4:28
03. Beneath A Velvet Sky 4:38
04. Magenta 1:38
05. Who's To Blame 4:01
06. Inevitable 4:00
07. Mute 4:10
08. Divine 4:00
09. More 4:23
10. Balls Etc... 2:26

Лог создания рипа

Exact Audio Copy V1.1 from 23. June 2015
Отчёт EAC об извлечении, выполненном 4. апреля 2017, 19:50
Mute / Mute (Sample CD XRCN-1220)
Дисковод: PLEXTOR BD-R PX-B950SA Adapter: 1 ID: 0
Режим чтения : Достоверность
Использование точного потока : Да
Отключение кэша аудио : Да
Использование указателей C2 : Нет
Коррекция смещения при чтении : 6
Способность читать области Lead-in и Lead-out : Нет
Заполнение пропущенных сэмплов тишиной : Да
Удаление блоков с тишиной в начале и конце : Нет
При вычислениях CRC использовались нулевые сэмплы : Да
Интерфейс : Встроенный Win32-интерфейс для Win NT/2000
Выходной формат : Пользовательский кодировщик
Выбранный битрейт : 1024 kBit/s
Качество : Высокий
Добавление ID3-тега : Нет
Утилита сжатия : C:\Program Files (x86)\Exact Audio Copy\FLAC\FLAC.EXE
Дополнительные параметры : -6 -V -T "ARTIST=%artist%" -T "TITLE=%title%" -T "ALBUM=%albumtitle%" -T "DATE=%year%" -T "TRACKNUMBER=%tracknr%" -T "GENRE=%genre%" -T "COMMENT=%comment%" -T "BAND=%albuminterpret%" -T "ALBUMARTIST=%albuminterpret%" -T "COMPOSER=%composer%" %haslyrics%--tag-from-file=LYRICS="%lyricsfile%"%haslyrics% -T "DISCNUMBER=%cdnumber%" -T "TOTALDISCS=%totalcds%" -T "TOTALTRACKS=%numtracks%" %hascover%--picture="%coverfile%"%hascover% %source% -o %dest%
TOC извлечённого CD
Трек | Старт | Длительность | Начальный сектор | Конечный сектор
---------------------------------------------------------------------
1 | 0:00.00 | 4:30.32 | 0 | 20281
2 | 4:30.32 | 4:27.70 | 20282 | 40376
3 | 8:58.27 | 4:37.68 | 40377 | 61219
4 | 13:36.20 | 1:38.20 | 61220 | 68589
5 | 15:14.40 | 4:00.65 | 68590 | 86654
6 | 19:15.30 | 3:59.60 | 86655 | 104639
7 | 23:15.15 | 4:10.32 | 104640 | 123421
8 | 27:25.47 | 4:00.05 | 123422 | 141426
9 | 31:25.52 | 4:23.05 | 141427 | 161156
10 | 35:48.57 | 2:26.05 | 161157 | 172111
Характеристики диапазона извлечения и сообщения об ошибках
Выбранный диапазон
Имя файла G:\RIP\Mute 1995 Japanese Pressing FLAC by alzal\Mute - Mute (Sample CD XRCN-1220).wav
Пиковый уровень 100.0 %
Скорость извлечения 7.9 X
Качество диапазона 100.0 %
CRC теста EB742622
CRC копии EB742622
Копирование... OK
Ошибок не произошло
AccurateRip: сводка
Трек 1 отсутствует в базе данных
Трек 2 отсутствует в базе данных
Трек 3 отсутствует в базе данных
Трек 4 отсутствует в базе данных
Трек 5 отсутствует в базе данных
Трек 6 отсутствует в базе данных
Трек 7 отсутствует в базе данных
Трек 8 отсутствует в базе данных
Трек 9 отсутствует в базе данных
Трек 10 отсутствует в базе данных
Ни одного трека нет в базе AccurateRip
Конец отчёта
---- CUETools DB Plugin V2.1.6
[CTDB TOCID: GniQZr4C6kdcOxOV1i5QTTYM2LA-] disk not present in database
Submit result: GniQZr4C6kdcOxOV1i5QTTYM2LA- has been uploaded
==== Контрольная сумма отчёта C865F04BE8BE7ECEF7A185B91EB1BD151DD15A8960EA6B952B8C24360CC9D1A1 ====

Лог проверки качества

AUDIOCHECKER v2.0 beta (build 457) - by Dester - opdester@freemail.hu
~~~~~~~~~~~~~~~~~~~~~~~~~~~~~~~~~~
-=== НЕ РЕДАКТИРУЙТЕ ЭТОТ ФАЙЛ! ===-
Путь: ...\Mute - Mute (1995) FLAC
1 -=- Mute - Mute (Sample CD XRCN-1220).flac -=- CDDA (100%)
171873892

Состав

Adam Pascal - Vocals
Keith Stevens - Drums
Brad Casella - Guitars
Scott H. Heller - Bass
[cybertorrent.ru].t41893.torrent 
Торрент: Зарегистрирован [ 2018-03-19 19:00 ] · BB651ADF74694F67C44995C8C40AC80DB55024CE

Скачать .torrent

Скачать

12 KB

Статус: проверено
Скачан: 0 раз
Размер: 274 MB
Профиль [ЛС]
Показать сообщения:    

Текущее время: 24-Апр 18:19

Часовой пояс: UTC ± 0



Вы не можете начинать темы
Вы не можете отвечать на сообщения
Вы не можете редактировать свои сообщения
Вы не можете удалять свои сообщения
Вы не можете голосовать в опросах
Вы не можете прикреплять файлы к сообщениям
Вы можете скачивать файлы