Статистика раздачи
Размер:  2,74 GB   |    Зарегистрирован:  2 месяца 3 дня   |    Скачан:  0 раз

Полного источника не было: Никогда

 
   
 
 

agent ®

Пол:
Не указан
Стаж:
3 месяца 6 дней
Сообщений:
331

Нужен мужчина
Год выпуска: 2018
Производство: Ivory Films
Жанр: мелодрама
Продолжительность: ~00:50:00 серия
Субтитры: нет
Режиссёр: Антон Гойда
В ролях: Алла Мартынюк, Илья Носков, Светлана Антонова, Владимир Юшко, Мирослава Филиппович, Руслан Коваль, Неонила Белецкая, Сергей Коршиков, Ирина Калашникова
Описание: В центре сюжета – любовный треугольник: преуспевающий бизнесмен Никита, его неверная жена Лера и молодая женщина Майя, которая пока не нашла свою любовь. Однажды Майя услышала звонкий детский смех на игровой площадке и в этот момент твердо решила: она обязательно станет матерью! Поиски потенциального отца для будущего ребенка оказывались тщетными и, казалось, Майя вот-вот откажется от своей мечты... Но именно в этот момент сама судьба свела ее с Никитой, знакомство с которым началось с крупного скандала, однако именно эта встреча изменила ее жизнь. Путь к счастью, конечно же, окажется непростым: Майе еще предстоит преодолеть все козни супруги Никиты Леры и ее мамы.

Реклама: Нет.
Кино-театр
Все раздачи сериала
Sample
Качество: WEBRip - Nicodem.Files-x
Формат: AVI
Видео кодек: XviD
Аудио кодек: AC3
Видео: 720x400 (1.80:1), 25 fps, XviD build 73 ~1700 kbps avg, 0.239 bit/pixel
Аудио: 48.0 kHz, AC3 Dolby Digital, 2/0 (L,R) ch, ~ 192 kbps

MI

General
Complete name : D:\Нужен мужчина.2018.WEBRip.by.Nicodem.Files-x\01.Нужен мужчина.2018.WEBRip.by.Nicodem.Files-x.avi
Format : AVI
Format/Info : Audio Video Interleave
File size : 701 MiB
Duration : 50mn 59s
Overall bit rate : 1 921 Kbps
Writing application : VirtualDubMod 1.5.10.3 | www.virtualdub-fr.org || (build 2550/release)
Writing library : VirtualDubMod build 2550/release
Video
ID : 0
Format : MPEG-4 Visual
Format profile : Advanced Simple@L5
Format settings, BVOP : 1
Format settings, QPel : Yes
Format settings, GMC : No warppoints
Format settings, Matrix : Custom
Codec ID : XVID
Codec ID/Hint : XviD
Duration : 50mn 59s
Bit rate : 1 719 Kbps
Width : 720 pixels
Height : 400 pixels
Display aspect ratio : 16:9
Frame rate : 25.000 fps
Color space : YUV
Chroma subsampling : 4:2:0
Bit depth : 8 bits
Scan type : Progressive
Compression mode : Lossy
Bits/(Pixel*Frame) : 0.239
Stream size : 627 MiB (89%)
Writing library : XviD 73
Audio
ID : 1
Format : AC-3
Format/Info : Audio Coding 3
Mode extension : CM (complete main)
Format settings, Endianness : Big
Codec ID : 2000
Duration : 50mn 59s
Bit rate mode : Constant
Bit rate : 192 Kbps
Channel count : 2 channels
Channel positions : Front: L R
Sampling rate : 48.0 KHz
Bit depth : 16 bits
Compression mode : Lossy
Stream size : 70.0 MiB (10%)
Alignment : Split accross interleaves
Interleave, duration : 40 ms (1.00 video frame)
Interleave, preload duration : 500 ms

Скриншоты


[cybertorrent.ru].t41896.torrent 
Торрент: Зарегистрирован [ 2018-03-19 19:00 ] · 0B07092C94A633F5EC0E24B6326A2E9467799E00

Скачать .torrent

Скачать

15 KB

Статус: проверено
Скачан: 0 раз
Размер: 2,74 GB
Профиль [ЛС]
Показать сообщения:    

Текущее время: 22-Май 23:19

Часовой пояс: UTC ± 0



Вы не можете начинать темы
Вы не можете отвечать на сообщения
Вы не можете редактировать свои сообщения
Вы не можете удалять свои сообщения
Вы не можете голосовать в опросах
Вы не можете прикреплять файлы к сообщениям
Вы можете скачивать файлы