Статистика раздачи
Размер:  119 MB   |    Зарегистрирован:  3 месяца 10 дней   |    Скачан:  0 раз

Полного источника не было: Никогда

 
   
 
 

lopster ®

Пол:
Не указан
Стаж:
3 месяца 11 дней
Сообщений:
612

Z Год выпуска: 2017
Жанр: короткометражка, ужасы, комедия
Продолжительность: 00:15:38-Режиссёр: Василий Сигарев
В главных ролях: Яна Троянова, Виталия Корниенко, Иван Титяев, Николай Басков, Александр Баширов, Светлана Камынина, Владимир Симонов, Петр Коршунков, Надежда Подъяпольская, Олег Корытин-Описание: Зомби-апокалипсис может случиться уже завтра. Но теперь есть место, где возможно спастись.- -Качество: WEBRip-AVC
Формат: MKV
Видео кодек: AVC
Аудио кодек: AAС
Видео: 1280x720, 25 fps, ~872 kbps avg, 0.038 bit/pixel
Аудио: 44,1 kHz, AAC, 2ch, ~126 kbps

скриншоты

MediaInfo

General
Unique ID : 198761048747255097547515475401437619302 (0x9587FC4D6624AA61B14E256FDD702466)
Complete name : D:\Mult\Z.2017.WEBRip-AVC.mkv
Format : Matroska
Format version : Version 4 / Version 2
File size : 119 MiB
Duration : 16 min
Overall bit rate : 1 000 kb/s
Encoded date : UTC 2017-10-23 09:31:21
Writing application : mkvmerge v13.0.0 ('The Juggler') 64bit
Writing library : libebml v1.3.4 + libmatroska v1.4.5
Video
ID : 1
Format : AVC
Format/Info : Advanced Video Codec
Format profile : Main@L3.1
Format settings, CABAC : Yes
Format settings, ReFrames : 3 frames
Codec ID : V_MPEG4/ISO/AVC
Duration : 16 min
Bit rate : 872 kb/s
Width : 1 280 pixels
Height : 720 pixels
Display aspect ratio : 16:9
Frame rate mode : Constant
Frame rate : 25.000 FPS
Color space : YUV
Chroma subsampling : 4:2:0
Bit depth : 8 bits
Scan type : Progressive
Bits/(Pixel*Frame) : 0.038
Stream size : 104 MiB (87%)
Default : Yes
Forced : No
Color range : Limited
Color primaries : BT.709
Transfer characteristics : BT.709
Matrix coefficients : BT.709
Audio
ID : 2
Format : AAC
Format/Info : Advanced Audio Codec
Format profile : LC
Codec ID : A_AAC
Duration : 16 min
Bit rate : 126 kb/s
Channel(s) : 2 channels
Channel positions : Front: L R
Sampling rate : 44.1 kHz
Frame rate : 43.066 FPS (1024 spf)
Compression mode : Lossy
Stream size : 15.0 MiB (13%)
Default : Yes
Forced : No
[cybertorrent.ru].t419.torrent 
Торрент: Зарегистрирован [ 2018-02-15 15:48 ] · 63DADCEEBAD2D0362537B92F7EE6E3F569C3E989

Скачать .torrent

Скачать

19 KB

Статус: проверено
Скачан: 0 раз
Размер: 119 MB
Профиль [ЛС]
Показать сообщения:    

Текущее время: 26-Май 15:35

Часовой пояс: UTC ± 0



Вы не можете начинать темы
Вы не можете отвечать на сообщения
Вы не можете редактировать свои сообщения
Вы не можете удалять свои сообщения
Вы не можете голосовать в опросах
Вы не можете прикреплять файлы к сообщениям
Вы можете скачивать файлы