Статистика раздачи
Размер:  1,46 GB   |    Зарегистрирован:  7 месяцев 1 день   |    Скачан:  0 раз

Полного источника не было: Никогда

   
 

Гость ®

Пол:
Не указан

Меченосец
Год выпуска: 2006
Жанр: фантастика, боевик, триллер, мелодрама
Продолжительность: 01:51:00.706 (159697 frames)
Субтитры: нет
Режиссер: Филипп Янковский
В ролях: Артем Ткаченко Чулпан Хаматова Леонид Громов Алексей Жарков Алексей Горбунов Татьяна Лютаева Надежда Маркина Николай Шатохин Александр Тютрюмов Егор Пазенко
Описание: Главный герой Саша идет по жизни, оставляя за собой кровавый след. За ним охотятся. Но горе тому из его преследователей, кто сумеет его настичь. Взрослея, он превращается в инструмент для восстановления справедливости. Чем омерзительнее преступление, тем страшнее наказание. Чудовищные и необъяснимые события разрезают ткань нашей действительности. Саша слишком опасен, чтобы жить среди людей, и поэтому весь мир ополчается против него. Он обладает неземной силой, способной уничтожить все на своем пути. Но однажды на этом пути появляется Она. Она не знает ничего про его сверхчеловеческие способности, а просто любит. Сможет ли герой спасти любовь, которая так хрупка в этом жестоком мире? Это драма человека, которому трудно оставаться человеком. Это история о том, как плоть превращается в сталь.
Качество: BDRip
Формат: AVI
Видео кодек: XviD
Аудио кодек: АС3
Видео: 720x304 (2.37:1), 23.976 fps, XviD build 73 ~1422 kbps avg, 0.27 bit/pixel
Аудио: 48 kHz, AC3 Dolby Digital, 3/2 (L,C,R,l,r) + LFE ch, ~448.00 kbps avg

Медиаинфо

General
Complete name : E:\004 Мои раздачи\Меченосец 1,46\mechenosec_1.46_by_bm11.avi
Format : AVI
Format/Info : Audio Video Interleave
File size : 1.46 GiB
Duration : 1h 51mn
Overall bit rate : 1 880 Kbps
Director : bm11
Writing application : VirtualDubMod 1.5.10.3 | www.virtualdub-fr.org || (build 2550/release)
Video
ID : 0
Format : MPEG-4 Visual
Format profile : Advanced Simple@L5
Format settings, BVOP : 1
Format settings, QPel : No
Format settings, GMC : No warppoints
Format settings, Matrix : Custom
Codec ID : XVID
Codec ID/Hint : XviD
Duration : 1h 51mn
Bit rate : 1 423 Kbps
Width : 720 pixels
Height : 304 pixels
Display aspect ratio : 2.35:1
Frame rate : 23.976 (23976/1000) fps
Color space : YUV
Chroma subsampling : 4:2:0
Bit depth : 8 bits
Scan type : Progressive
Compression mode : Lossy
Bits/(Pixel*Frame) : 0.271
Stream size : 1.10 GiB (76%)
Writing library : XviD 73
Audio
ID : 1
Format : AC-3
Format/Info : Audio Coding 3
Mode extension : CM (complete main)
Format settings, Endianness : Big
Codec ID : 2000
Duration : 1h 51mn
Bit rate mode : Constant
Bit rate : 448 Kbps
Channel(s) : 6 channels
Channel positions : Front: L C R, Side: L R, LFE
Sampling rate : 48.0 KHz
Frame rate : 31.250 fps (1536 spf)
Compression mode : Lossy
Stream size : 356 MiB (24%)
Alignment : Split accross interleaves
Interleave, duration : 42 ms (1.00 video frame)
Interleave, preload duratio : 500 ms
[cybertorrent.ru].t419.torrent 
Торрент: Зарегистрирован [ 2019-03-18 13:08 ] · F35FC2AEB28002D5A1823517F03A51DEF950CB0B

Скачать .torrent

Скачать

15 KB

Статус: проверено
Скачан: 0 раз
Размер: 1,46 GB
terms.php
Показать сообщения:    

Текущее время: 20-Окт 10:57

Часовой пояс: UTC ± 0



Вы не можете начинать темы
Вы не можете отвечать на сообщения
Вы не можете редактировать свои сообщения
Вы не можете удалять свои сообщения
Вы не можете голосовать в опросах
Вы не можете прикреплять файлы к сообщениям
Вы можете скачивать файлы