Статистика раздачи
Размер:  2,73 GB   |    Зарегистрирован:  2 месяца 3 дня   |    Скачан:  0 раз

Полного источника не было: Никогда

 
   
 
 

agent ®

Пол:
Не указан
Стаж:
3 месяца 6 дней
Сообщений:
331

Обратная сторона любви
Год выпуска: 2017
Производство: Студия "Жар-птица"
Жанр: мелодрама
Продолжительность: ~00:46:00 серия
Субтитры: нет
Режиссёр: Сергей Борчуков
В ролях: Яна Гурьянова, Владимир Жеребцов, Елена Коренева, Алексей Демидов, Андрей Барило, Юлия Куварзина, Виталий Абдулов, Ярослав Ефременко
Описание: Наталья - обычная девушка, хрупкая, но с сильным характером. Мечтала стать модельером, но не сложилось. Десять лет назад ее бросил жених Евгений. Теперь она одна воспитывает сына, работает на двух работах, живет в коммуналке и иногда шьет одежду на заказ. Наталья надеется, что однажды обязательно найдет своего единственного - жить одной тяжело, да и сыну нужен отец. И она встречает такого человека. Переходя дорогу, Наталья попадает под колеса дорогой иномарки. За рулем - местный бизнесмен Михаил, владелец сети магазинов одежды. Он обходителен и галантен, красиво ухаживает. Наталья и Михаил начинают встречаться. Вскоре Наталья оказывается очень полезной и в бизнесе Михаила - он ставит ее директором одного из своих магазинов. Женщина радуется, что наконец-то обрела счастье. Но мать Михаила настроена против нее и делает все, чтобы рассорить ее со своим сыном. Неожиданно в жизнь Натальи возвращается бывший жених и отец ее ребенка. А главное, Михаил оказывается совсем не тем человеком, каким Наталья его представляла...

Реклама: Нет.
Кинопоиск
Все раздачи сериала
Sample
Качество: WEBRip - Files-x
Формат: AVI
Видео кодек: XviD
Аудио кодек: AC3
Видео: 720x400 (1.80:1), 25 fps, XviD build 73 ~1900 kbps avg, 0.265 bit/pixel
Аудио: 48.0 kHz, AC3 Dolby Digital, 2/0 (L,R) ch, ~ 192 kbps

MI

General
Complete name : D:\Обратная сторона любви.2017.WEB-DLRip.Files-x\01.Обратная сторона любви.2017.WEB-DLRip.Files-x.avi
Format : AVI
Format/Info : Audio Video Interleave
File size : 1.36 GiB
Duration : 1h 32mn
Overall bit rate : 2 109 Kbps
Writing application : VirtualDubMod 1.5.10.3 | www.virtualdub-fr.org || (build 2550/release)
Writing library : VirtualDubMod build 2550/release
Video
ID : 0
Format : MPEG-4 Visual
Format profile : Advanced Simple@L5
Format settings, BVOP : 1
Format settings, QPel : No
Format settings, GMC : No warppoints
Format settings, Matrix : Custom
Codec ID : XVID
Codec ID/Hint : XviD
Duration : 1h 32mn
Bit rate : 1 908 Kbps
Width : 720 pixels
Height : 400 pixels
Display aspect ratio : 16:9
Frame rate : 25.000 fps
Color space : YUV
Chroma subsampling : 4:2:0
Bit depth : 8 bits
Scan type : Progressive
Compression mode : Lossy
Bits/(Pixel*Frame) : 0.265
Stream size : 1.23 GiB (90%)
Writing library : XviD 73
Audio
ID : 1
Format : AC-3
Format/Info : Audio Coding 3
Mode extension : CM (complete main)
Format settings, Endianness : Big
Codec ID : 2000
Duration : 1h 32mn
Bit rate mode : Constant
Bit rate : 192 Kbps
Channel count : 2 channels
Channel positions : Front: L R
Sampling rate : 48.0 KHz
Bit depth : 16 bits
Compression mode : Lossy
Stream size : 127 MiB (9%)
Alignment : Split accross interleaves
Interleave, duration : 40 ms (1.00 video frame)
Interleave, preload duration : 500 ms

Скриншоты


[cybertorrent.ru].t41902.torrent 
Торрент: Зарегистрирован [ 2018-03-19 19:00 ] · A9C715A72292A4A6B8D2484070FC7CF3B50B6F6D

Скачать .torrent

Скачать

14 KB

Статус: проверено
Скачан: 0 раз
Размер: 2,73 GB
Профиль [ЛС]
Показать сообщения:    

Текущее время: 22-Май 23:17

Часовой пояс: UTC ± 0



Вы не можете начинать темы
Вы не можете отвечать на сообщения
Вы не можете редактировать свои сообщения
Вы не можете удалять свои сообщения
Вы не можете голосовать в опросах
Вы не можете прикреплять файлы к сообщениям
Вы можете скачивать файлы