Статистика раздачи
Размер:  328 MB   |    Зарегистрирован:  1 месяц 4 дня   |    Скачан:  0 раз

Полного источника не было: Никогда

 
   
 
 

Frozen ®

Пол:
Не указан
Стаж:
2 месяца 8 дней
Сообщений:
296

The Cheaters / Midnight Run
Жанр: Southern Rock/Blues-Rock/Roots Rock
Носитель: WEB
Год издания: 2009
Издатель (лейбл): Independent
Страна исполнителя (группы): Nashville, TN
Аудиокодек: FLAC (*.flac)
Тип рипа: tracks
Битрейт аудио: lossless
Продолжительность: 42:28
Наличие сканов в содержимом раздачи: front

Tracklist:
01 Fast Times 03:48
02 Blow My Mind 05:52
03 Lay It On the Line 04:10
04 Let Down 02:46
05 You Just Don't Get It 02:43
06 Justify 04:24
07 Midnight Run 02:50
08 One Night Woman 03:18
09 Locked and Loaded 04:24
10 In Your Lies 02:41
11 I Ain't Comin' Back 03:30
12 Bye Bye Baltimore Sky 02:00

Dynamic Range Meter

foobar2000 1.3.16 / Dynamic Range Meter 1.1.1
log date: 2018-02-10 11:38:27
--------------------------------------------------------------------------------
Analyzed: The Cheaters / Midnight Run
--------------------------------------------------------------------------------
DR Peak RMS Duration Track
--------------------------------------------------------------------------------
DR6 -0.40 dB -7.07 dB 3:48 01-Fast Times
DR6 -0.36 dB -8.74 dB 5:52 02-Blow My Mind
DR7 -0.19 dB -7.64 dB 4:10 03-Lay It On the Line
DR6 -0.24 dB -7.66 dB 2:46 04-Let Down
DR6 -0.20 dB -7.52 dB 2:43 05-You Just Don't Get It
DR7 -0.20 dB -7.68 dB 4:24 06-Justify
DR7 -0.22 dB -7.94 dB 2:50 07-Midnight Run
DR6 -0.20 dB -7.25 dB 3:18 08-One Night Woman
DR7 -0.30 dB -8.09 dB 4:24 09-Locked and Loaded
DR6 -0.46 dB -7.50 dB 2:41 10-In Your Lies
DR6 -0.19 dB -7.22 dB 3:30 11-I Ain't Comin' Back
DR6 -0.40 dB -7.07 dB 2:00 12-Bye Bye Baltimore Sky
--------------------------------------------------------------------------------
Number of tracks: 12
Official DR value: DR6
Samplerate: 44100 Hz
Channels: 2
Bits per sample: 16
Bitrate: 1136 kbps
Codec: FLAC

Log Quality Checking

PERFORMER: auCDtect Task Manager, ver. 1.6.0 RC1 build 1.6.0.1
Copyright (c) 2008-2010 y-soft. All rights reserved
http://y-soft.org
ANALYZER: auCDtect: CD records authenticity detector, version 0.8.2
Copyright (c) 2004 Oleg Berngardt. All rights reserved.
Copyright (c) 2004 Alexander Djourik. All rights reserved.
FILE: 1 - Fast Times.flac
Size: 30676057 Hash: 0A6EEA95CBB2C04CF46EC70A980DD57D Accuracy: -m0
Conclusion: CDDA 100%
Signature: B727FE5BAFF1EC105982886980C356C1209A0565
FILE: 2 - Blow My Mind.flac
Size: 44007288 Hash: 8345E26DE8E2E5490A7B78A44F0EE552 Accuracy: -m0
Conclusion: CDDA 100%
Signature: FDF8D83D184FA4A8A0148FCE2C87ADBCEC5D4902
FILE: 3 - Lay It On the Line.flac
Size: 34629919 Hash: B7B7696219BE0D7A07A3B06242EE3492 Accuracy: -m0
Conclusion: CDDA 100%
Signature: BF8451D5A970B5810B71D0A07C7C2F3BC4F3CEEE
FILE: 4 - Let Down.flac
Size: 21038740 Hash: 6DF6EFA8934558AB804196FEAD347C61 Accuracy: -m0
Conclusion: CDDA 100%
Signature: F3BF8E10FE816D608598D8902C0CCB4157262721
FILE: 5 - You Just Don't Get It.flac
Size: 21958893 Hash: 2E61903820172A6C10503F7DCF1DCBD4 Accuracy: -m0
Conclusion: CDDA 100%
Signature: 56E98C4CB3C33301701B8FEBCB87CC6F8DDF9DBE
FILE: 6 - Justify.flac
Size: 35484335 Hash: 8890D8E0263B619EE47075DB36D64FAF Accuracy: -m0
Conclusion: CDDA 100%
Signature: 8C1619591DF3BC294D3A742E07C8FC86CD846D27
FILE: 7 - Midnight Run.flac
Size: 23358115 Hash: 1815A7C56FC79D6733060C1FAA16DB2D Accuracy: -m0
Conclusion: CDDA 100%
Signature: 5E31249B107A427DAB189DD384DC5E9DEA9610CD
FILE: 8 - One Night Woman.flac
Size: 26794759 Hash: 333813D5C9AD7117D68F0F92A36DB481 Accuracy: -m0
Conclusion: CDDA 100%
Signature: 214E77D3D666C423F22FA90C3E17473F25C0E2A9
FILE: 9 - Locked and Loaded.flac
Size: 35923971 Hash: 9FC38E52BD3D7D5D9A5129DDD63EDE73 Accuracy: -m0
Conclusion: CDDA 99%
Signature: 447A903072BC54BF1135A84E7EF6C9FD88B1EE6B
FILE: 10 - In Your Lies.flac
Size: 22642617 Hash: AEEE47A352E222B2275B436D9CF6F19A Accuracy: -m0
Conclusion: CDDA 100%
Signature: 59DE206FD1D799CB616E924BFA31FE2A94E4C0C5
FILE: 11 - I Ain't Comin' Back.flac
Size: 29775842 Hash: 305E91472CCE1E0AEBAE640E899459B5 Accuracy: -m0
Conclusion: CDDA 100%
Signature: 766D24F9137BC910BE5FF29959942CE50D03FE4F
FILE: 12 - Bye Bye Baltimore Sky.flac
Size: 17087375 Hash: 92D589E27F29B3A65544D47FBEF13A3B Accuracy: -m0
Conclusion: CDDA 100%
Signature: 790D760924CA1185185C9C1979A5C62CF7B9110A

Frequency Spectrum Screenshot

Ну, не знаю , если предыдущие релизы данной команды лежат в разделе блюз-рок, то так тому и быть! По мне, так данный релиз, это один из лучших образчиков современного молодежного американского рутс-рока, в его самом хорошем воплощении! Классный релиз! Советую не пропустить!

Состав

Jason Morton - Vocals\Guitar
Kevin Shook - Drums
Brett Wilmer - Lead Guitar
Dave Wolf - Bass\Vocals
[cybertorrent.ru].t41905.torrent 
Торрент: Зарегистрирован [ 2018-03-19 19:00 ] · 10C7DD7A23E8433EEED56B652928EA73CF0FC097

Скачать .torrent

Скачать

14 KB

Статус: проверено
Скачан: 0 раз
Размер: 328 MB
Профиль [ЛС]
Показать сообщения:    

Текущее время: 24-Апр 04:45

Часовой пояс: UTC ± 0



Вы не можете начинать темы
Вы не можете отвечать на сообщения
Вы не можете редактировать свои сообщения
Вы не можете удалять свои сообщения
Вы не можете голосовать в опросах
Вы не можете прикреплять файлы к сообщениям
Вы можете скачивать файлы