Статистика раздачи
Размер:  336 MB   |    Зарегистрирован:  1 месяц 4 дня   |    Скачан:  0 раз

Полного источника не было: Никогда

 
   
 
 

Frozen ®

Пол:
Не указан
Стаж:
2 месяца 9 дней
Сообщений:
296

Jeff Fetterman / 9 Miles To Nowhere
Жанр: Blues-Rock
Носитель: WEB
Год издания: 2017
Издатель (лейбл): Green Tea Music
Страна исполнителя (группы): Erie, PA
Аудиокодек: FLAC (*.flac)
Тип рипа: tracks
Битрейт аудио: lossless
Продолжительность: 44:46
Наличие сканов в содержимом раздачи: front
Треклист:
01 Somebody Get Me a Doctor 04:26
02 Something Just Ain't Right 03:28
03 Devil Knockin' at My Door 04:49
04 Brand New Day 06:22
05 Lover Man 04:32
06 Goodbye John Brown 02:29
07 Broken Hearted 06:19
08 Early Grave 03:58
09 Bad Feeling 03:25
10 These Arms of Mine 05:00

Динамический диапазон

foobar2000 1.3.16 / Dynamic Range Meter 1.1.1
log date: 2017-12-10 09:59:54
--------------------------------------------------------------------------------
Analyzed: Jeff Fetterman / 9 Miles To Nowhere
--------------------------------------------------------------------------------
DR Peak RMS Duration Track
--------------------------------------------------------------------------------
DR6 -0.97 dB -7.88 dB 4:26 01-Somebody Get Me A Doctor
DR6 -0.96 dB -8.01 dB 3:28 02-Something Just Ain't Right
DR5 -0.95 dB -7.11 dB 4:49 03-Devil Knockin' At My Door
DR7 -0.93 dB -8.39 dB 6:22 04-Brand New Day
DR7 -0.94 dB -8.36 dB 4:32 05-Lover Man
DR7 -0.82 dB -9.68 dB 2:29 06-Goodbye John Brown
DR6 -0.94 dB -7.57 dB 6:19 07-Broken Hearted
DR6 -0.86 dB -8.34 dB 3:58 08-Early Grave
DR6 -0.93 dB -7.58 dB 3:25 09-Bad Feeling
DR6 -0.93 dB -8.68 dB 5:00 10-These Arms Of Mine
--------------------------------------------------------------------------------
Number of tracks: 10
Official DR value: DR6
Samplerate: 44100 Hz
Channels: 2
Bits per sample: 16
Bitrate: 1008 kbps
Codec: FLAC

Лог проверки качества

PERFORMER: auCDtect Task Manager, ver. 1.6.0 RC1 build 1.6.0.1
Copyright (c) 2008-2010 y-soft. All rights reserved
http://y-soft.org
ANALYZER: auCDtect: CD records authenticity detector, version 0.8.2
Copyright (c) 2004 Oleg Berngardt. All rights reserved.
Copyright (c) 2004 Alexander Djourik. All rights reserved.
FILE: 01 - Somebody Get Me A Doctor.flac
Size: 36310709 Hash: 4FA13D943D98DA4208F437F269101711 Accuracy: -m0
Conclusion: CDDA 100%
Signature: 5C293C6AEF0AFEA7DECD545E8A905077B97D662F
FILE: 02 - Something Just Ain't Right.flac
Size: 27364819 Hash: A5FE99D2C4F4C57133F0D90156B88681 Accuracy: -m0
Conclusion: CDDA 100%
Signature: F549DE872375B2BF50D6EB0ECA7732B847A3BD5D
FILE: 03 - Devil Knockin' At My Door.flac
Size: 38151908 Hash: AFE55192FE5D92D6DE00B6D0BA623F1E Accuracy: -m0
Conclusion: CDDA 100%
Signature: 1CC6C1606377D8B0C5BDC001445CE8C0ABF785E3
FILE: 04 - Brand New Day.flac
Size: 50165666 Hash: CDC498F6F4CDFE90799ADFADC6D51ABD Accuracy: -m0
Conclusion: CDDA 100%
Signature: 4FE664166C0E9AA667C0DECD4BD2F447D0F3D44E
FILE: 05 - Lover Man.flac
Size: 36473597 Hash: 6181B1B9C8824BE28A382242B8D5681C Accuracy: -m0
Conclusion: CDDA 100%
Signature: 43BE7C3DD97918628C04313DFB8614022191AE3C
FILE: 06 - Goodbye John Brown.flac
Size: 19966474 Hash: A216047F700D6B22B6E557AAAFB2CA5D Accuracy: -m0
Conclusion: CDDA 100%
Signature: 4B867964BF3AEBC36CBEDB2D1BD5FD693F601870
FILE: 07 - Broken Hearted.flac
Size: 46523667 Hash: D79B2EC2C4620F9641EEE532F48D83CC Accuracy: -m0
Conclusion: CDDA 100%
Signature: 276AB2EF4302B203F5CD40F278375886778217E6
FILE: 08 - Early Grave.flac
Size: 31572386 Hash: 6B5E56535EFF40E89BD3C3F3CCBEF69E Accuracy: -m0
Conclusion: CDDA 100%
Signature: ABC4297F451CAB18FBAC6A648EEA0B8DE48EE2AD
FILE: 09 - Bad Feeling.flac
Size: 27225947 Hash: 754E4C2A442C9F7C985E10C25A1E0F36 Accuracy: -m0
Conclusion: CDDA 100%
Signature: 4D1228E47E2D2A231DB45E845859B3A099BBB1CE
FILE: 10 - These Arms Of Mine.flac
Size: 38006623 Hash: F34921B3D25768144FD3312C7D9A996C Accuracy: -m0
Conclusion: CDDA 100%
Signature: 056828B2BF05D3068242E040209876CA7E71D6A3

Скриншот спектра частот

Об исполнителе (группе)

http://www.jefffetterman.com

Состав

Jeff Fetterman -Guitar/vocals
Ralph Reitinger III -Bass
John McGuire -Drums
Judy Kessler -Vocals/percussion
[cybertorrent.ru].t41907.torrent 
Торрент: Зарегистрирован [ 2018-03-19 19:00 ] · 7645B9974908ADF5E3BAB6B8B81D0A28A920330E

Скачать .torrent

Скачать

14 KB

Статус: проверено
Скачан: 0 раз
Размер: 336 MB
Профиль [ЛС]
Показать сообщения:    

Текущее время: 24-Апр 14:07

Часовой пояс: UTC ± 0



Вы не можете начинать темы
Вы не можете отвечать на сообщения
Вы не можете редактировать свои сообщения
Вы не можете удалять свои сообщения
Вы не можете голосовать в опросах
Вы не можете прикреплять файлы к сообщениям
Вы можете скачивать файлы