Статистика раздачи
Размер:  270 MB   |    Зарегистрирован:  1 месяц 2 дня   |    Скачан:  0 раз

Полного источника не было: Никогда

 
   
 
 

Серёга ®

Пол:
Не указан
Стаж:
2 месяца 7 дней
Сообщений:
299

Jim Lahman / Music Changes Everything
Жанр: Blues/Modern Electric
Носитель: WEB
Год издания: 2018
Издатель (лейбл): LahmanTone Records
Страна исполнителя (группы): USA
Аудиокодек: FLAC (*.flac)
Тип рипа: tracks
Битрейт аудио: lossless
Продолжительность: 44:38
Наличие сканов в содержимом раздачи: front
Треклист:
01 Music Changes Everything 04:02
02 Listening Is An Act Of Love 04:53
03 Just Above The Horizon / Salida '63 07:17
04 Bring It Down / We Can't Let Them 03:47
05 This Trip 03:29
06 I Just Want To Play 05:55
07 Funky Wild Horse 05:05
08 Anymore 04:55
09 All Of My Friends 05:15

Динамический диапазон

foobar2000 1.3.16 / Dynamic Range Meter 1.1.1
log date: 2018-03-07 07:59:03
--------------------------------------------------------------------------------
Analyzed: Jim Lahman / Music Changes Everything
--------------------------------------------------------------------------------
DR Peak RMS Duration Track
--------------------------------------------------------------------------------
DR7 -0.50 dB -7.62 dB 4:02 01-Music Changes Everything
DR6 -2.33 dB -8.52 dB 4:53 02-Listening Is An Act Of Love
DR8 -1.39 dB -10.35 dB 7:17 03-Just Above The Horizon / Salida '63
DR7 -2.30 dB -9.72 dB 3:47 04-Bring It Down / We Can't Let Them
DR8 -2.59 dB -11.04 dB 3:29 05-This Trip
DR5 -0.50 dB -7.00 dB 5:55 06-I Just Want To Play
DR8 -0.50 dB -8.80 dB 5:05 07-Funky Wild Horse
DR7 -2.20 dB -10.29 dB 4:55 08-Anymore
DR10 0.00 dB -10.55 dB 5:15 09-All Of My Friends
--------------------------------------------------------------------------------
Number of tracks: 9
Official DR value: DR7
Samplerate: 44100 Hz
Channels: 2
Bits per sample: 16
Bitrate: 824 kbps
Codec: FLAC

Лог проверки качества

PERFORMER: auCDtect Task Manager, ver. 1.6.0 RC1 build 1.6.0.1
Copyright (c) 2008-2010 y-soft. All rights reserved
http://y-soft.org
ANALYZER: auCDtect: CD records authenticity detector, version 0.8.2
Copyright (c) 2004 Oleg Berngardt. All rights reserved.
Copyright (c) 2004 Alexander Djourik. All rights reserved.
FILE: 01 - Music Changes Everything.flac
Size: 27441411 Hash: 98F57858FAFA27EC33757F9A37814A56 Accuracy: -m0
Conclusion: CDDA 100%
Signature: 9D087428C14792EA3DE16DB1D311E117256E81D3
FILE: 02 - Listening Is An Act Of Love.flac
Size: 29031410 Hash: 302C2A8F9FC402567757A9365069C5D2 Accuracy: -m0
Conclusion: CDDA 94%
Signature: CB14DB221C5710674FA52CBAFB62FFDE82C934E4
FILE: 03 - Just Above The Horizon - Salida '63.flac
Size: 41653687 Hash: C9FC25FADF2EA02E230E816DD09DC09A Accuracy: -m0
Conclusion: CDDA 100%
Signature: B69EF28EFD0220640058074507F9EAA0D049B966
FILE: 04 - Bring It Down - We Can't Let Them.flac
Size: 24239209 Hash: 9FB13D92B25BC402B67F7F8CC564CAA7 Accuracy: -m0
Conclusion: CDDA 99%
Signature: 29F9E9C97DC5888F6FCF64FAE53E5BD0C864DC06
FILE: 05 - This Trip.flac
Size: 21105345 Hash: A0827DF7E056A029DCAC450ED948E4A7 Accuracy: -m0
Conclusion: CDDA 100%
Signature: 9AE18C3BB8EDF21824BB52578009C18AB09F1A47
FILE: 06 - I Just Want To Play.flac
Size: 37069965 Hash: E619F5E194D0B9175D0A220EF7586B61 Accuracy: -m0
Conclusion: CDDA 100%
Signature: 96E963F52F476BE23BBB6993D78DF79B9C128667
FILE: 07 - Funky Wild Horse.flac
Size: 36675824 Hash: A46908D019C0FF3FB285CF86F1DF19FB Accuracy: -m0
Conclusion: CDDA 100%
Signature: FD79C3907ADED0771549C511CC31401241A418A4
FILE: 08 - Anymore.flac
Size: 32421354 Hash: 9D981FDB78B35D96515A7C82C6417FD5 Accuracy: -m0
Conclusion: CDDA 100%
Signature: 15E1C22D939A448DFF0E76ED48240BD0D624C374
FILE: 09 - All Of My Friends.flac
Size: 32628664 Hash: FC7A88B087ACA2A6DD72E1B6FA60020D Accuracy: -m0
Conclusion: CDDA 100%
Signature: CDB176A77FD35810BCAA881A6EC2935F9DAA874A

Скриншот спектра частот

[cybertorrent.ru].t41908.torrent 
Торрент: Зарегистрирован [ 2018-03-19 19:00 ] · 40D1C264D7A066D4C02CBF2A369C9CDA2E0F03F5

Скачать .torrent

Скачать

12 KB

Статус: проверено
Скачан: 0 раз
Размер: 270 MB
Профиль [ЛС]
Показать сообщения:    

Текущее время: 22-Апр 14:35

Часовой пояс: UTC ± 0



Вы не можете начинать темы
Вы не можете отвечать на сообщения
Вы не можете редактировать свои сообщения
Вы не можете удалять свои сообщения
Вы не можете голосовать в опросах
Вы не можете прикреплять файлы к сообщениям
Вы можете скачивать файлы