Статистика раздачи
Размер:  297 MB   |    Зарегистрирован:  1 месяц 3 дня   |    Скачан:  0 раз

Полного источника не было: Никогда

 
   
 
 

Frozen ®

Пол:
Не указан
Стаж:
2 месяца 7 дней
Сообщений:
296

Jason Morton and the Chesapeake Sons / Jason Morton and the Chesapeake Sons
Жанр: Southern Rock/Blues-Rock/Roots Rock
Носитель: WEB
Год издания: 2017
Издатель (лейбл): Copperline Music Group
Страна исполнителя (группы): USA
Аудиокодек: FLAC (*.flac)
Тип рипа: tracks
Битрейт аудио: lossless
Продолжительность: 41:41
Источник (релизер): non
Наличие сканов в содержимом раздачи: front
Треклист:
01 Ride All Night 03:31
02 The Things I've Done 03:26
03 Southern Sound 07:07
04 Matacumbe 04:46
05 I Knew 03:38
06 Before It Gets Better 03:22
07 One More Night 04:32
08 Mexico 03:04
09 Round The Corner 03:37
10 No Time 04:39

Динамический диапазон

foobar2000 1.3.16 / Dynamic Range Meter 1.1.1
log date: 2018-03-10 22:59:19
--------------------------------------------------------------------------------
Analyzed: Jason Morton and The Chesapeake Sons / Jason Morton and the Chesapeake Sons
--------------------------------------------------------------------------------
DR Peak RMS Duration Track
--------------------------------------------------------------------------------
DR8 -0.02 dB -9.27 dB 3:31 01-Ride All Night
DR7 -0.55 dB -8.47 dB 3:26 02-The Things I've Done
DR8 0.00 dB -10.04 dB 7:07 03-Southern Sound
DR9 0.00 dB -10.55 dB 4:46 04-Matacumbe
DR9 -0.01 dB -10.86 dB 3:38 05-I Knew
DR8 -0.13 dB -10.37 dB 3:22 06-Before It Gets Better
DR8 0.00 dB -10.05 dB 4:32 07-One More Night
DR7 0.00 dB -8.52 dB 3:04 08-Mexico
DR8 -0.17 dB -9.73 dB 3:37 09-Round The Corner
DR8 0.00 dB -10.04 dB 4:39 10-No Time
--------------------------------------------------------------------------------
Number of tracks: 10
Official DR value: DR8
Samplerate: 44100 Hz
Channels: 2
Bits per sample: 16
Bitrate: 953 kbps
Codec: FLAC

Лог проверки качества

PERFORMER: auCDtect Task Manager, ver. 1.6.0 RC1 build 1.6.0.1
Copyright (c) 2008-2010 y-soft. All rights reserved
http://y-soft.org
ANALYZER: auCDtect: CD records authenticity detector, version 0.8.2
Copyright (c) 2004 Oleg Berngardt. All rights reserved.
Copyright (c) 2004 Alexander Djourik. All rights reserved.
FILE: 01 - Ride All Night.flac
Size: 25713728 Hash: 15ED61915968B2FD3D787E3D9C84F046 Accuracy: -m0
Conclusion: CDDA 99%
Signature: 17277E02777432BAF6B12759A76C2C0C0D207D6E
FILE: 02 - The Things I've Done.flac
Size: 25240353 Hash: 499C2B5BD115D0D564AC5F85CFF8D293 Accuracy: -m0
Conclusion: CDDA 100%
Signature: E037438879A7F967A048D2E0FDF110AD1B0F45D8
FILE: 03 - Southern Sound.flac
Size: 54354630 Hash: 923159DEEBC7C457C9EE96C83A2E16A2 Accuracy: -m0
Conclusion: CDDA 100%
Signature: 4992E40F69B85E882526192B36712661F394765E
FILE: 04 - Matacumbe.flac
Size: 36832682 Hash: E9BFF7C2C6D1EBADECD24D6C9632A342 Accuracy: -m0
Conclusion: CDDA 99%
Signature: 2A0587ED36EA47AFD04D4F9D576FC1D0376DCBD3
FILE: 05 - I Knew.flac
Size: 25107475 Hash: C891D234EF5DBA238C28B4F279629CD3 Accuracy: -m0
Conclusion: CDDA 100%
Signature: 99DEAE396ACBF28661F030F452ADAA13B1C433C1
FILE: 06 - Before It Gets Better.flac
Size: 25131920 Hash: 60C7518644FE8F7D55A5D7545051016C Accuracy: -m0
Conclusion: CDDA 100%
Signature: CB38161225B1291E6269AD6FE756DE492CCF1B6D
FILE: 07 - One More Night.flac
Size: 34963972 Hash: 23F48D7CD394E162E267BDAB28883039 Accuracy: -m0
Conclusion: CDDA 100%
Signature: 64A83BF0DECAA8D716B34C2991A431FB77389B9B
FILE: 08 - Mexico.flac
Size: 23148236 Hash: 28C73F39F708A5FB2B0D4E7390BD6BCC Accuracy: -m0
Conclusion: CDDA 100%
Signature: A27DEF75AA923C74A1B442CFDFDA718307869C4F
FILE: 09 - Round The Corner.flac
Size: 26630646 Hash: 174C653128E2D3A3ACD7B61486CD5154 Accuracy: -m0
Conclusion: CDDA 100%
Signature: 7B7D2255063307E06752D13979468F7FA2FAC3CB
FILE: 10 - No Time.flac
Size: 33508690 Hash: AF1041C5BB5DD2FD14F674ADD0174770 Accuracy: -m0
Conclusion: CDDA 99%
Signature: 8D09E234F92991A505A47EFCB2E26E9D57FE5DDC

Скриншот спектра частот

[cybertorrent.ru].t41913.torrent 
Торрент: Зарегистрирован [ 2018-03-19 19:00 ] · 20F6479D57A5C35535642FAFD4079B3AC25AC386

Скачать .torrent

Скачать

13 KB

Статус: проверено
Скачан: 0 раз
Размер: 297 MB
Профиль [ЛС]
Показать сообщения:    

Текущее время: 22-Апр 23:41

Часовой пояс: UTC ± 0



Вы не можете начинать темы
Вы не можете отвечать на сообщения
Вы не можете редактировать свои сообщения
Вы не можете удалять свои сообщения
Вы не можете голосовать в опросах
Вы не можете прикреплять файлы к сообщениям
Вы можете скачивать файлы