Статистика раздачи
Размер:  222 MB   |    Зарегистрирован:  2 месяца 3 дня   |    Скачан:  0 раз

Полного источника не было: Никогда

 
   
 
 

lom ®

Пол:
Не указан
Стаж:
3 месяца 7 дней
Сообщений:
219

Addaura / Addaura
Жанр: Atmospheric Black Metal, Cascadian Black Metal
Носитель: CD
Страна-производитель диска (релиза): USA
Год издания: 2010
Издатель (лейбл): Independent
Страна исполнителя (группы): USA
Аудиокодек: FLAC (*.flac)
Тип рипа: tracks+.cue
Битрейт аудио: lossless
Продолжительность: 36:33
Источник (релизер): Apollo.rip
Наличие сканов в содержимом раздачи: нет
Треклист:
1. White Deer (9:29)
2. Bereavement (7:45)
3. Through The Rain (8:37)
4. Ochre And Ore (10:42)

Лог создания рипа

Exact Audio Copy V1.0 beta 3 from 29. August 2011
EAC extraction logfile from 31. May 2013, 0:24
Addaura / Demo 2010
Used drive : ASUS DRW-24B1ST a Adapter: 4 ID: 0
Read mode : Secure
Utilize accurate stream : Yes
Defeat audio cache : Yes
Make use of C2 pointers : No
Read offset correction : 6
Overread into Lead-In and Lead-Out : No
Fill up missing offset samples with silence : Yes
Delete leading and trailing silent blocks : No
Null samples used in CRC calculations : Yes
Used interface : Native Win32 interface for Win NT & 2000
Gap handling : Appended to previous track
Used output format : User Defined Encoder
Selected bitrate : 1024 kBit/s
Quality : High
Add ID3 tag : Yes
Command line compressor : C:\Program Files (x86)\Exact Audio Copy\Flac\flac.exe
Additional command line options : -8 -V -T "ARTIST=%artist%" -T "TITLE=%title%" -T "ALBUM=%albumtitle%" -T "DATE=%year%" -T "TRACKNUMBER=%tracknr%" -T "GENRE=%genre%" -T "PERFORMER=%albuminterpret%" -T "COMPOSER=%composer%" %haslyrics%--tag-from-file=LYRICS="%lyricsfile%"%haslyrics% -T "ALBUMARTIST=%albumartist%" -T "DISCNUMBER=%cdnumber%" -T "TOTALDISCS=%totalcds%" -T "TOTALTRACKS=%numtracks%" -T "COMMENT=%comment%" %source% -o %dest%
TOC of the extracted CD
Track | Start | Length | Start sector | End sector
---------------------------------------------------------
1 | 0:00.00 | 9:29.21 | 0 | 42695
2 | 9:29.21 | 7:45.38 | 42696 | 77608
3 | 17:14.59 | 8:37.70 | 77609 | 116453
4 | 25:52.54 | 10:42.74 | 116454 | 164677
Track 1
Filename F:\ups\what\Addaura - Demo 2010 (2010) [FLAC]\01. White Deer.wav
Pre-gap length 0:00:02.00
Peak level 100.0 %
Extraction speed 4.5 X
Track quality 100.0 %
Test CRC EE602C2D
Copy CRC EE602C2D
Track not present in AccurateRip database
Copy OK
Track 2
Filename F:\ups\what\Addaura - Demo 2010 (2010) [FLAC]\02. Bereavement.wav
Peak level 100.0 %
Extraction speed 5.2 X
Track quality 100.0 %
Test CRC E19ED725
Copy CRC E19ED725
Track not present in AccurateRip database
Copy OK
Track 3
Filename F:\ups\what\Addaura - Demo 2010 (2010) [FLAC]\03. Through the Rain.wav
Peak level 99.4 %
Extraction speed 5.3 X
Track quality 99.9 %
Test CRC 873C59BE
Copy CRC 873C59BE
Track not present in AccurateRip database
Copy OK
Track 4
Filename F:\ups\what\Addaura - Demo 2010 (2010) [FLAC]\04. Ochre and Ore.wav
Peak level 99.8 %
Extraction speed 6.7 X
Track quality 100.0 %
Test CRC 5A6CA674
Copy CRC 5A6CA674
Track not present in AccurateRip database
Copy OK
None of the tracks are present in the AccurateRip database
No errors occurred
End of status report
==== Log checksum B91FA032DFADA0A8152F34B35D275CB9ACC958A3A4B49604F0F1F2C232D76AAB ====

Содержание индексной карты (.CUE)

REM GENRE "Atmospheric Black Metal"
REM DATE 2010
REM DISCID 28089304
REM COMMENT "ExactAudioCopy v1.0b3"
TITLE Addaura
PERFORMER Addaura
FILE "01. White Deer.flac" WAVE ; 569280.000 milliseconds
TRACK 01 AUDIO
TITLE "White Deer"
PERFORMER Addaura
INDEX 01 00:00:00
FILE "02. Bereavement.flac" WAVE ; 465506.667 milliseconds
TRACK 02 AUDIO
TITLE Bereavement
PERFORMER Addaura
INDEX 01 00:00:00
FILE "03. Through the Rain.flac" WAVE ; 517933.333 milliseconds
TRACK 03 AUDIO
TITLE "Through the Rain"
PERFORMER Addaura
INDEX 01 00:00:00
FILE "04. Ochre and Ore.flac" WAVE ; 642986.667 milliseconds
TRACK 04 AUDIO
TITLE "Ochre and Ore"
PERFORMER Addaura
INDEX 01 00:00:00

Лог проверки качества

-----------------------
DON'T MODIFY THIS FILE
-----------------------
PERFORMER: auCDtect Task Manager, ver. 1.6.0 RC1 build 1.6.0.1
Copyright (c) 2008-2010 y-soft. All rights reserved
http://y-soft.org
ANALYZER: auCDtect: CD records authenticity detector, version 0.8.2
Copyright (c) 2004 Oleg Berngardt. All rights reserved.
Copyright (c) 2004 Alexander Djourik. All rights reserved.
FILE: 04. Ochre and Ore.flac
Size: 67282551 Hash: C7A5B07643777A7C83E63B97DE01CC82 Accuracy: -m0
Conclusion: CDDA 100%
Signature: 354C091E0E92029DCC173D96CDAE0BAD0B741020
FILE: 03. Through the Rain.flac
Size: 55648964 Hash: 1935D7EBE8C9863956ECD2235E1E79F4 Accuracy: -m0
Conclusion: CDDA 100%
Signature: 0B39189BC76573E96176E9A544C113294E4EE1CA
FILE: 02. Bereavement.flac
Size: 50347402 Hash: E26E5A2A4B61CEE06AA2E07A145074C5 Accuracy: -m0
Conclusion: CDDA 100%
Signature: 39610EC1BDBA8AF3AF6D90AF966A984936A7D29F
FILE: 01. White Deer.flac
Size: 59388102 Hash: 0E54674BC70270FBB77AC75D1D04FCC3 Accuracy: -m0
Conclusion: CDDA 100%
Signature: 5DD8324F513B33253B0A0641AFAB723B55A5DCC1
[cybertorrent.ru].t41938.torrent 
Торрент: Зарегистрирован [ 2018-03-19 19:00 ] · 7F3FE688EAAF7C25F184711FCD413B626869070C

Скачать .torrent

Скачать

36 KB

Статус: проверено
Скачан: 0 раз
Размер: 222 MB
Профиль [ЛС]
Показать сообщения:    

Текущее время: 22-Май 23:21

Часовой пояс: UTC ± 0



Вы не можете начинать темы
Вы не можете отвечать на сообщения
Вы не можете редактировать свои сообщения
Вы не можете удалять свои сообщения
Вы не можете голосовать в опросах
Вы не можете прикреплять файлы к сообщениям
Вы можете скачивать файлы