Статистика раздачи
Размер:  479 MB   |    Зарегистрирован:  2 месяца 3 дня   |    Скачан:  0 раз

Полного источника не было: Никогда

 
   
 
 

craft ®

Пол:
Не указан
Стаж:
3 месяца 8 дней
Сообщений:
432

--Aka - Hard Beat (The Best 1971-1977) - 2011 (Strawberry Rain)-- Жанр: Psychedelic Rock, Heavy Psych, Progressive Rock, Funk, Hard Rock
Носитель: CD (compilation)
Страна-производитель диска (релиза): Canada
Год издания оригинала: 2011
Издатель (лейбл): Strawberry Rain
Номер по каталогу: SR001
Страна исполнителя (группы) : Indonesia
Язык: English
Аудио кодек: FLAC (*.flac)
Тип рипа: (tracks + .cue)
Битрейт аудио: lossless
Корректность рипа: cue was not presented, created manually
Наличие сканов в содержимом раздачи: full scans
Продолжительность: 01:14:57
Источник (релизер): proto (REDacted)
Трэклист:
1. Do What You Like
2. Glenmore
3. Reflection
4. We've Gotta Work It Out
5. Cruel Side
6. Groovy
7. Suez War
8. Mr Bull Doc
9. Shake Me
10. Only One Man
11. Crazy Joe
12. Skip Away
13. Open Doors
14. Sky Rider
15. Aka Untuk Mu (CD only)

Лог создания рипа

Exact Audio Copy V1.0 beta 1 from 15. November 2010
EAC extraction logfile from 3. August 2011, 15:24
Aka / Hard Beat
Used drive : Optiarc DVD RW AD-7200S Adapter: 2 ID: 1
Read mode : Secure
Utilize accurate stream : Yes
Defeat audio cache : Yes
Make use of C2 pointers : No
Read offset correction : 48
Overread into Lead-In and Lead-Out : No
Fill up missing offset samples with silence : Yes
Delete leading and trailing silent blocks : No
Null samples used in CRC calculations : Yes
Used interface : Native Win32 interface for Win NT & 2000
Gap handling : Appended to previous track
Used output format : User Defined Encoder
Selected bitrate : 896 kBit/s
Quality : High
Add ID3 tag : No
Command line compressor : C:\Program Files\Exact Audio Copy\FLAC\FLAC.EXE
Additional command line options : -8 -V -T "ARTIST=%a" -T "TITLE=%t" -T "ALBUM=%g" -T "DATE=%y" -T "TRACKNUMBER=%n" -T "TOTALTRACKS=%x" -T "GENRE=%m" -T "ALBUMARTIST=%v" -T "ALBUM ARTIST=%v" -T "COMMENT=EAC V1.0 beta 1, Secure Mode, Test & Copy, AccurateRip
TOC of the extracted CD
Track | Start | Length | Start sector | End sector
---------------------------------------------------------
1 | 0:00.00 | 3:46.74 | 0 | 17023
2 | 3:46.74 | 5:27.44 | 17024 | 41592
3 | 9:14.43 | 4:23.49 | 41593 | 61366
4 | 13:38.17 | 4:32.71 | 61367 | 81837
5 | 18:11.13 | 5:45.52 | 81838 | 107764
6 | 23:56.65 | 4:37.27 | 107765 | 128566
7 | 28:34.17 | 6:38.73 | 128567 | 158489
8 | 35:13.15 | 4:42.03 | 158490 | 179642
9 | 39:55.18 | 5:32.02 | 179643 | 204544
10 | 45:27.20 | 8:18.74 | 204545 | 241968
11 | 53:46.19 | 3:43.00 | 241969 | 258693
12 | 57:29.19 | 4:18.73 | 258694 | 278116
13 | 61:48.17 | 4:20.07 | 278117 | 297623
14 | 66:08.24 | 5:37.40 | 297624 | 322938
15 | 71:45.64 | 3:20.69 | 322939 | 338007
Track 1
Filename C:\[runner's rip]\Aka - Hard Beat (1971-1977) [flac]\01 - Do What You Like.wav
Pre-gap length 0:00:02.00
Peak level 97.7 %
Extraction speed 2.3 X
Track quality 100.0 %
Test CRC FFFD2BAF
Copy CRC FFFD2BAF
Track not present in AccurateRip database
Copy OK
Track 2
Filename C:\[runner's rip]\Aka - Hard Beat (1971-1977) [flac]\02 - Glenmore.wav
Pre-gap length 0:00:02.00
Peak level 97.7 %
Extraction speed 2.8 X
Track quality 100.0 %
Test CRC CCE228B0
Copy CRC CCE228B0
Track not present in AccurateRip database
Copy OK
Track 3
Filename C:\[runner's rip]\Aka - Hard Beat (1971-1977) [flac]\03 - Reflection.wav
Pre-gap length 0:00:02.00
Peak level 97.7 %
Extraction speed 2.6 X
Track quality 99.9 %
Test CRC AEEA1CED
Copy CRC AEEA1CED
Track not present in AccurateRip database
Copy OK
Track 4
Filename C:\[runner's rip]\Aka - Hard Beat (1971-1977) [flac]\04 - We've Gotta Work It Out.wav
Pre-gap length 0:00:02.00
Peak level 97.7 %
Extraction speed 2.9 X
Track quality 99.9 %
Test CRC BA2B5310
Copy CRC BA2B5310
Track not present in AccurateRip database
Copy OK
Track 5
Filename C:\[runner's rip]\Aka - Hard Beat (1971-1977) [flac]\05 - Cruel Side.wav
Pre-gap length 0:00:02.00
Peak level 97.7 %
Extraction speed 3.2 X
Track quality 99.9 %
Test CRC D69899A3
Copy CRC D69899A3
Track not present in AccurateRip database
Copy OK
Track 6
Filename C:\[runner's rip]\Aka - Hard Beat (1971-1977) [flac]\06 - Groovy.wav
Pre-gap length 0:00:02.00
Peak level 97.7 %
Extraction speed 3.7 X
Track quality 100.0 %
Test CRC DB401E58
Copy CRC DB401E58
Track not present in AccurateRip database
Copy OK
Track 7
Filename C:\[runner's rip]\Aka - Hard Beat (1971-1977) [flac]\07 - Suez War.wav
Pre-gap length 0:00:02.00
Peak level 97.7 %
Extraction speed 4.1 X
Track quality 100.0 %
Test CRC AA517FB4
Copy CRC AA517FB4
Track not present in AccurateRip database
Copy OK
Track 8
Filename C:\[runner's rip]\Aka - Hard Beat (1971-1977) [flac]\08 - Mr. Bull Doc.wav
Pre-gap length 0:00:02.00
Peak level 97.7 %
Extraction speed 4.2 X
Track quality 100.0 %
Test CRC 652347F3
Copy CRC 652347F3
Track not present in AccurateRip database
Copy OK
Track 9
Filename C:\[runner's rip]\Aka - Hard Beat (1971-1977) [flac]\09 - Shake Me.wav
Pre-gap length 0:00:02.00
Peak level 97.7 %
Extraction speed 4.4 X
Track quality 100.0 %
Test CRC 94E7ED75
Copy CRC 94E7ED75
Track not present in AccurateRip database
Copy OK
Track 10
Filename C:\[runner's rip]\Aka - Hard Beat (1971-1977) [flac]\10 - Only One Man.wav
Pre-gap length 0:00:02.00
Peak level 97.7 %
Extraction speed 4.8 X
Track quality 100.0 %
Test CRC 86F70A96
Copy CRC 86F70A96
Track not present in AccurateRip database
Copy OK
Track 11
Filename C:\[runner's rip]\Aka - Hard Beat (1971-1977) [flac]\11 - Crazy Joe.wav
Pre-gap length 0:00:02.00
Peak level 97.7 %
Extraction speed 4.6 X
Track quality 100.0 %
Test CRC 089067CE
Copy CRC 089067CE
Track not present in AccurateRip database
Copy OK
Track 12
Filename C:\[runner's rip]\Aka - Hard Beat (1971-1977) [flac]\12 - Skip Away.wav
Pre-gap length 0:00:02.00
Peak level 97.7 %
Extraction speed 4.1 X
Track quality 99.9 %
Test CRC 1015E13D
Copy CRC 1015E13D
Track not present in AccurateRip database
Copy OK
Track 13
Filename C:\[runner's rip]\Aka - Hard Beat (1971-1977) [flac]\13 - Open Doors.wav
Pre-gap length 0:00:02.00
Peak level 97.7 %
Extraction speed 4.8 X
Track quality 100.0 %
Test CRC 1AC12330
Copy CRC 1AC12330
Track not present in AccurateRip database
Copy OK
Track 14
Filename C:\[runner's rip]\Aka - Hard Beat (1971-1977) [flac]\14 - Sky Rider.wav
Pre-gap length 0:00:02.00
Peak level 97.7 %
Extraction speed 5.1 X
Track quality 100.0 %
Test CRC C3CD3A6E
Copy CRC C3CD3A6E
Track not present in AccurateRip database
Copy OK
Track 15
Filename C:\[runner's rip]\Aka - Hard Beat (1971-1977) [flac]\15 - Aka Untuk Mu.wav
Pre-gap length 0:00:02.00
Peak level 97.7 %
Extraction speed 4.3 X
Track quality 99.9 %
Test CRC C69FE67C
Copy CRC C69FE67C
Track not present in AccurateRip database
Copy OK
None of the tracks are present in the AccurateRip database
No errors occurred
End of status report
==== Log checksum 87B91182EA343C0ED54AA20F59559C51739940ED9D9E0CC2C13AD72399D0EC18 ====

Содержание индексной карты (.CUE):

REM GENRE "Rock"
REM DATE 2011
REM COMMENT "Strawberry Rain, Indonesia"
PERFORMER "Aka"
TITLE "Hard Beat"
FILE "01 - Do What You Like.flac" WAVE
TRACK 01 AUDIO
TITLE "Do What You Like"
INDEX 01 00:00:00
FILE "02 - Glenmore.flac" WAVE
TRACK 02 AUDIO
TITLE "Glenmore"
INDEX 01 00:00:00
FILE "03 - Reflection.flac" WAVE
TRACK 03 AUDIO
TITLE "Reflection"
INDEX 01 00:00:00
FILE "04 - We've Gotta Work It Out.flac" WAVE
TRACK 04 AUDIO
TITLE "We've Gotta Work It Out"
INDEX 01 00:00:00
FILE "05 - Cruel Side.flac" WAVE
TRACK 05 AUDIO
TITLE "Cruel Side"
INDEX 01 00:00:00
FILE "06 - Groovy.flac" WAVE
TRACK 06 AUDIO
TITLE "Groovy"
INDEX 01 00:00:00
FILE "07 - Suez War.flac" WAVE
TRACK 07 AUDIO
TITLE "Suez Wa"
INDEX 01 00:00:00
FILE "08 - Mr. Bull Doc.flac" WAVE
TRACK 08 AUDIO
TITLE "Mr. Bull Doc"
INDEX 01 00:00:00
FILE "09 - Shake Me.flac" WAVE
TRACK 09 AUDIO
TITLE "Shake Me"
INDEX 01 00:00:00
FILE "10 - Only One Man.flac" WAVE
TRACK 10 AUDIO
TITLE "Only One Man"
INDEX 01 00:00:00
FILE "11 - Crazy Joe.flac" WAVE
TRACK 10 AUDIO
TITLE "Crazy Joe"
INDEX 01 00:00:00
FILE "12 - Skip Away.flac" WAVE
TRACK 10 AUDIO
TITLE "Skip Away"
INDEX 01 00:00:00
FILE "13 - Open Doors.flac" WAVE
TRACK 10 AUDIO
TITLE "Open Doors"
INDEX 01 00:00:00
FILE "14 - Sky Rider.flac" WAVE
TRACK 10 AUDIO
TITLE "Sky Rider"
INDEX 01 00:00:00
FILE "15 - Aka Untuk Mu.flac" WAVE
TRACK 10 AUDIO
TITLE "Aka Untuk Mu.flac"
INDEX 01 00:00:00

Лог проверки качества

-----------------------
DON'T MODIFY THIS FILE
-----------------------
PERFORMER: auCDtect Task Manager, ver. 1.6.0 RC1 build 1.6.0.1
Copyright (c) 2008-2010 y-soft. All rights reserved
http://y-soft.org
ANALYZER: auCDtect: CD records authenticity detector, version 0.8.2
Copyright (c) 2004 Oleg Berngardt. All rights reserved.
Copyright (c) 2004 Alexander Djourik. All rights reserved.
FILE: 15 - Aka Untuk Mu.flac
Size: 21655913 Hash: 4BC030638CE1C0EC4D891E90AB776734 Accuracy: -m0
Conclusion: CDDA 100%
Signature: DECE18B35B0638A931D73E279B4F273DCC9364E4
FILE: 14 - Sky Rider.flac
Size: 38129101 Hash: DBF4D10B1CE0CC2C8E9F2828B647FFBB Accuracy: -m0
Conclusion: CDDA 100%
Signature: A82F412A8384ADC03CF23101210F7E02A324B0DE
FILE: 13 - Open Doors.flac
Size: 31689801 Hash: A998FDF960E7126811D383D2C6B27EB6 Accuracy: -m0
Conclusion: CDDA 100%
Signature: A6479F82129E5191010252EFFB5A79AE00593209
FILE: 12 - Skip Away.flac
Size: 27586555 Hash: 377707161624DCC2D00ACD4F67A5FA2C Accuracy: -m0
Conclusion: CDDA 100%
Signature: A6CE7CBCF1E6E2B1722F58F80101895BA35B8BBA
FILE: 11 - Crazy Joe.flac
Size: 25099781 Hash: 8BC121995A2B09529AD448DACE96FAB0 Accuracy: -m0
Conclusion: CDDA 100%
Signature: 92290C7583C4AB7530A82AF7B14F16D4E1F9F562
FILE: 10 - Only One Man.flac
Size: 52200815 Hash: C495E3906BA8BE12E18D93CF8DA6AFA5 Accuracy: -m0
Conclusion: CDDA 100%
Signature: A203FB4C26500E5839FFBA41C213F03ACBE6C8FC
FILE: 09 - Shake Me.flac
Size: 38732619 Hash: 050A9DB692DC84E042C51F64E6336526 Accuracy: -m0
Conclusion: CDDA 100%
Signature: B36B62F3EF9DBA1F5756C470D5A1FA301821ED2A
FILE: 08 - Mr. Bull Doc.flac
Size: 29661746 Hash: 1BF99386ACBE7633F25BD0D949A7C743 Accuracy: -m0
Conclusion: CDDA 99%
Signature: B27F2DD9E2C65E3F3D66BB491037E1793CDEEB2C
FILE: 07 - Suez War.flac
Size: 44482152 Hash: A5A371483BC89F4FC9919D649A85FDD0 Accuracy: -m0
Conclusion: CDDA 100%
Signature: 8E713951E000E6E5C7A013FC37E85221DB6AC7C1
FILE: 06 - Groovy.flac
Size: 28973589 Hash: 6D02CA320242E1A6CE0985329384B173 Accuracy: -m0
Conclusion: CDDA 100%
Signature: C68CF03F0D53070B3531F12415116034527E0CAE
FILE: 05 - Cruel Side.flac
Size: 37416545 Hash: 39EFD476EBE4EB4EE19B011445B38C09 Accuracy: -m0
Conclusion: CDDA 100%
Signature: C9E460FC4F49F8B3071A8A813B3BC9C1BD924E98
FILE: 04 - We've Gotta Work It Out.flac
Size: 30777128 Hash: 3607D1558C253E3C80B656F2A6CDC367 Accuracy: -m0
Conclusion: CDDA 100%
Signature: 0B49FE3229E7EC0E25268E89CF8EE0088EE5CFB9
FILE: 03 - Reflection.flac
Size: 29785114 Hash: 1AF5D67B1B400741864935BF706BE148 Accuracy: -m0
Conclusion: CDDA 99%
Signature: 6B88F6F8116A1748104BE5A201174A76ABE78993
FILE: 02 - Glenmore.flac
Size: 37745526 Hash: CA39C39808FF8672C53814B42F1BA821 Accuracy: -m0
Conclusion: CDDA 100%
Signature: 4D2F646C6097282FB4A132691669395C3DA4BC9D
FILE: 01 - Do What You Like.flac
Size: 24864627 Hash: 52E4475F0AF5175BC94604C800864D24 Accuracy: -m0
Conclusion: CDDA 100%
Signature: DAEB9311A51C2F1292EE286595D755494B72A120

Лог CUETools

[CUETools log; Date: 3/14/2018 8:30:22 PM; Version: 2.1.5]
[CTDB TOCID: 2l672aBckcR34awQ2lYjhnsUR8M-] found.
Track | CTDB Status
1 | (4/4) Accurately ripped
2 | (4/4) Accurately ripped
3 | (4/4) Accurately ripped
4 | (4/4) Accurately ripped
5 | (4/4) Accurately ripped
6 | (4/4) Accurately ripped
7 | (4/4) Accurately ripped
8 | (4/4) Accurately ripped
9 | (4/4) Accurately ripped
10 | (4/4) Accurately ripped
11 | (4/4) Accurately ripped
12 | (4/4) Accurately ripped
13 | (4/4) Accurately ripped
14 | (4/4) Accurately ripped
15 | (4/4) Accurately ripped
[AccurateRip ID: 002979e7-01da67e3-ce119a0f] found.
Track [ CRC | V2 ] Status
01 [0f622414|8c7a83b6] (2+0/2) Accurately ripped
02 [6f84f59a|f27de430] (2+0/2) Accurately ripped
03 [0aa17c7f|b812a96c] (2+0/2) Accurately ripped
04 [5648dbb9|89b9e727] (2+0/2) Accurately ripped
05 [33709c39|35ddbdde] (2+0/2) Accurately ripped
06 [14f1f3f0|0f4acec0] (2+0/2) Accurately ripped
07 [ec3284ec|15e80f89] (2+0/2) Accurately ripped
08 [0aceebae|75dbb90d] (2+0/2) Accurately ripped
09 [ef5b3a1a|78a9cf26] (2+0/2) Accurately ripped
10 [5be9f734|79eeeef9] (2+0/2) Accurately ripped
11 [0880b8b0|42f50c44] (2+0/2) Accurately ripped
12 [e225970e|7cd4e87c] (2+0/2) Accurately ripped
13 [9c7861a6|f6181dde] (2+0/2) Accurately ripped
14 [c3293a60|029161ae] (2+0/2) Accurately ripped
15 [b4af8786|a9a7672d] (2+0/2) Accurately ripped
Track Peak [ CRC32 ] [W/O NULL] [ LOG ]
-- 97.7 [FD09FB6D] [BA75A7C7]
01 97.7 [FFFD2BAF] [EA291247] CRC32
02 97.7 [CCE228B0] [1FDA3005] CRC32
03 97.7 [AEEA1CED] [CDEDFDC8] CRC32
04 97.7 [BA2B5310] [F94063C5] CRC32
05 97.7 [D69899A3] [BE7BA181] CRC32
06 97.7 [DB401E58] [1E9DFD46] CRC32
07 97.7 [AA517FB4] [DE19064B] CRC32
08 97.7 [652347F3] [29917E3C] CRC32
09 97.7 [94E7ED75] [FD56115D] CRC32
10 97.7 [86F70A96] [2B66D707] CRC32
11 97.7 [089067CE] [9242AB90] CRC32
12 97.7 [1015E13D] [4A2604FF] CRC32
13 97.7 [1AC12330] [CDEB3635] CRC32
14 97.7 [C3CD3A6E] [D5682EF8] CRC32
15 97.7 [C69FE67C] [0B155758] CRC32

Замер динамического диапазона

foobar2000 1.3.10 / Замер динамического диапазона (DR) 1.1.1
Дата отчёта: 2018-03-14 20:22:31
--------------------------------------------------------------------------------
Анализ: Aka / Hard Beat
--------------------------------------------------------------------------------
DR Пики RMS Продолжительность трека
--------------------------------------------------------------------------------
DR8 -0.20 дБ -9.10 дБ 3:47 01-Do What You Like
DR8 -0.20 дБ -8.78 дБ 5:28 02-Glenmore
DR8 -0.20 дБ -9.03 дБ 4:24 03-Reflection
DR8 -0.20 дБ -8.85 дБ 4:33 04-We've Gotta Work It Out
DR8 -0.20 дБ -8.77 дБ 5:46 05-Cruel Side
DR8 -0.20 дБ -9.31 дБ 4:37 06-Groovy
DR9 -0.20 дБ -9.27 дБ 6:39 07-Suez War
DR8 -0.20 дБ -9.35 дБ 4:42 08-Mr. Bull Doc
DR8 -0.20 дБ -9.12 дБ 5:32 09-Shake Me
DR8 -0.20 дБ -9.73 дБ 8:19 10-Only One Man
DR9 -0.20 дБ -10.25 дБ 3:43 11-Crazy Joe
DR9 -0.20 дБ -9.79 дБ 4:19 12-Skip Away
DR8 -0.20 дБ -8.77 дБ 4:20 13-Open Doors
DR8 -0.20 дБ -8.81 дБ 5:38 14-Sky Rider
DR8 -0.20 дБ -9.19 дБ 3:21 15-Aka Untuk Mu
--------------------------------------------------------------------------------
Количество треков: 15
Реальные значения DR: DR8
Частота: 44100 Гц
Каналов: 2
Разрядность: 16
Битрейт: 862 кбит/с
Кодек: FLAC
================================================================================
-

Back

Диск

Об альбоме (сборнике):

AllMusic Review by Eduardo Rivadavia писал(а):

Состав

Syech Adidin - Drums, Vocals
Ucok Harahap - Keyboards, Vocals
Arthur Kaunang - Bass, Vocals
Soenatha Tandjung - Guitar, Vocals
-
[cybertorrent.ru].t41940.torrent 
Торрент: Зарегистрирован [ 2018-03-19 19:00 ] · C387F922C5CD62DBBAA79C7B124C2D3CE967D845

Скачать .torrent

Скачать

20 KB

Статус: проверено
Скачан: 0 раз
Размер: 479 MB
Профиль [ЛС]
Показать сообщения:    

Текущее время: 23-Май 18:37

Часовой пояс: UTC ± 0



Вы не можете начинать темы
Вы не можете отвечать на сообщения
Вы не можете редактировать свои сообщения
Вы не можете удалять свои сообщения
Вы не можете голосовать в опросах
Вы не можете прикреплять файлы к сообщениям
Вы можете скачивать файлы