Статистика раздачи
Размер:  486 MB   |    Зарегистрирован:  1 месяц 2 дня   |    Скачан:  0 раз

Полного источника не было: Никогда

 
   
 
 

Серёга ®

Пол:
Не указан
Стаж:
2 месяца 7 дней
Сообщений:
299

Zoe Schwarz Blue Commotion / The Blues and I Should Have a Party
Жанр: Contemporary Blues/ Music
Носитель: WEB
Год издания: 2018
Издатель (лейбл): Rob Koral
Страна исполнителя (группы): UK
Аудиокодек: FLAC (*.flac)
Тип рипа: tracks
Битрейт аудио: lossless
Продолжительность: 01:04:16
Наличие сканов в содержимом раздачи: front
Треклист:
01. Please Don't Cheat On Me 04:05
02. The Blues And I Should Have A Party 06:27
03. You've Changed 05:32
04. Way Down In The Caves 04:55
05. Don't Worry Blues 07:46
06. Shout 03:32
07. You Don't Live Here Anymore 05:41
08. My Handsome Man 05:30
09. Tell Me You Love Me 02:47
10. Don't Hold Back 04:01
11. The Memory Of You 05:04
12. Time Waits For No One 04:57
13. Thank You 03:58

Динамический диапазон

foobar2000 1.3.16 / Dynamic Range Meter 1.1.1
log date: 2018-03-17 21:45:38
--------------------------------------------------------------------------------
Analyzed: Zoe Schwarz Blue Commotion, Rob Koral, Pete Whittaker, Paul Robinson / The Blues and I Should Have a Party
--------------------------------------------------------------------------------
DR Peak RMS Duration Track
--------------------------------------------------------------------------------
DR7 -0.06 dB -8.21 dB 4:05 01-Please Don't Cheat On Me
DR7 -0.06 dB -8.10 dB 6:27 02-The Blues And I Should Have A Party
DR8 -0.06 dB -9.17 dB 5:32 03-You've Changed
DR8 -0.06 dB -9.00 dB 4:55 04-Way Down In The Caves
DR9 -0.06 dB -9.88 dB 7:46 05-Don't Worry Blues
DR9 -0.06 dB -9.57 dB 3:32 06-Shout
DR8 -0.06 dB -8.84 dB 5:41 07-You Don't Live Here Anymore
DR8 -0.06 dB -9.01 dB 5:30 08-My Handsome Man
DR8 -0.06 dB -9.14 dB 2:47 09-Tell Me
DR8 -0.06 dB -8.61 dB 4:01 10-Don't Hold Back
DR8 -0.06 dB -9.17 dB 5:04 11-The Memory Of You
DR8 -0.06 dB -9.02 dB 4:57 12-Time Waits For No One
DR8 -0.06 dB -9.04 dB 3:58 13-Thank You
--------------------------------------------------------------------------------
Number of tracks: 13
Official DR value: DR8
Samplerate: 44100 Hz
Channels: 2
Bits per sample: 16
Bitrate: 1057 kbps
Codec: FLAC

Лог проверки качества

PERFORMER: auCDtect Task Manager, ver. 1.6.0 RC1 build 1.6.0.1
Copyright (c) 2008-2010 y-soft. All rights reserved
http://y-soft.org
ANALYZER: auCDtect: CD records authenticity detector, version 0.8.2
Copyright (c) 2004 Oleg Berngardt. All rights reserved.
Copyright (c) 2004 Alexander Djourik. All rights reserved.
FILE: 01 - Please Don't Cheat On Me.flac
Size: 31726576 Hash: 0E925461883FBB09314BB38B86C87E0C Accuracy: -m0
Conclusion: CDDA 100%
Signature: F7891AB403CA5EFA7F09EB3460A709D752DB9D35
FILE: 02 - The Blues And I Should Have A Party.flac
Size: 50764036 Hash: 26942F0F8AD4C4FD8CC690209193B7DF Accuracy: -m0
Conclusion: CDDA 100%
Signature: A6FE06DA237506AAB616543DE1FFF2EDF4D2C32F
FILE: 03 - You've Changed.flac
Size: 44037749 Hash: F075ED0FD4B468D668E8BA946AA81CE9 Accuracy: -m0
Conclusion: CDDA 100%
Signature: B770ACA42F61D5F3C56D5BC435A937A6B1E4DB25
FILE: 04 - Way Down In The Caves.flac
Size: 40203359 Hash: 2E3F79745B65FEE9E8E3FBC32EF4FDEA Accuracy: -m0
Conclusion: CDDA 100%
Signature: F5A4ABEDAF905702BC5D7B584F54BAA2ADEE824B
FILE: 05 - Don't Worry Blues.flac
Size: 56699474 Hash: 54CE3C6A56E3E0E180FF85B0F36F1609 Accuracy: -m0
Conclusion: CDDA 100%
Signature: 4A719942DD076B98C06E04603D9C9A22B89D27E5
FILE: 06 - Shout.flac
Size: 29650162 Hash: 5E126338DC777EBBEFFD20FA68661C78 Accuracy: -m0
Conclusion: CDDA 100%
Signature: ED1AECB20B60DC67EAC4D23DDDEFA3BC2E9D1B6A
FILE: 07 - You Don't Live Here Anymore.flac
Size: 45852734 Hash: 9F2ABD411D83D5E852EE793843B525C1 Accuracy: -m0
Conclusion: CDDA 100%
Signature: 3E44C606F66E9FC06D549FE5F3E8001226325249
FILE: 08 - My Handsome Man.flac
Size: 44087231 Hash: C4934F1214F03EDC2ACEE2F5ED3BC2C5 Accuracy: -m0
Conclusion: CDDA 100%
Signature: 8DEF20A31D6DDB901DDFB537AF41F24E2283B099
FILE: 09 - Tell Me.flac
Size: 22303221 Hash: 4B225020E0C6A966E7D1BAC08AF7D575 Accuracy: -m0
Conclusion: CDDA 100%
Signature: 09AB5F93CA1905610FC44B9B117EBCE6D45B9947
FILE: 10 - Don't Hold Back.flac
Size: 32263711 Hash: B1180612E37C39F82B10FF33B41929B6 Accuracy: -m0
Conclusion: CDDA 100%
Signature: E45F54D5610493A54A437E8B20BAA87F01D22809
FILE: 11 - The Memory Of You.flac
Size: 41337078 Hash: 0B9851DD495EB99F7A91990F8E0322E6 Accuracy: -m0
Conclusion: CDDA 100%
Signature: D640487D04945FDEF90A174A25F0AF9C46A07AFD
FILE: 12 - Time Waits For No One.flac
Size: 38510253 Hash: 22C76606A11F218599C4D7CB4EBADAD6 Accuracy: -m0
Conclusion: CDDA 100%
Signature: 567ED4A29DE37FC3114F2D6BB5A20FA9E5734A27
FILE: 13 - Thank You.flac
Size: 31824896 Hash: A7C0DD0DB730624586E690350FDE749B Accuracy: -m0
Conclusion: CDDA 100%
Signature: A6BA86C71A239EC8AA82E4E3AA4219F2D18B7234

Скриншот спектра частот

Об исполнителе (группе)

https://www.bluecommotion.com/
[cybertorrent.ru].t41943.torrent 
Торрент: Зарегистрирован [ 2018-03-19 19:00 ] · 593B9E034FB64C0A58E01C3A4B7958C75C17C88B

Скачать .torrent

Скачать

21 KB

Статус: проверено
Скачан: 0 раз
Размер: 486 MB
Профиль [ЛС]
Показать сообщения:    

Текущее время: 22-Апр 16:06

Часовой пояс: UTC ± 0



Вы не можете начинать темы
Вы не можете отвечать на сообщения
Вы не можете редактировать свои сообщения
Вы не можете удалять свои сообщения
Вы не можете голосовать в опросах
Вы не можете прикреплять файлы к сообщениям
Вы можете скачивать файлы