Статистика раздачи
Размер:  218 MB   |    Зарегистрирован:  1 месяц 4 дня   |    Скачан:  0 раз

Полного источника не было: Никогда

 
   
 
 

Катюшка ®

Пол:
Не указан
Стаж:
2 месяца 9 дней
Сообщений:
288

Wigwam / Being
Жанр: Prog Rock
Носитель: CD
Страна-производитель диска (релиза): Austria
Год издания: 1973/1991
Издатель (лейбл): Love Records
Номер по каталогу: LRCD 92
Страна исполнителя (группы): Finland
Аудиокодек: WavPack (*.wv)
Тип рипа: image+.cue
Битрейт аудио: lossless
Продолжительность: 00:38:21
Источник (релизер): pqsyerg
Наличие сканов в содержимом раздачи: нет
Треклист:
1 Proletarian
2 Inspired Machine
3 Petty-Bourgeois
4 Pride Of The Biosphere
5 Pedagogue
6 Crisader
7 Planetist
8 Maestro Mercy
9 Prophet
10 Marvelry Skimmer

Лог создания рипа

Exact Audio Copy V1.0 beta 3 from 29. August 2011
EAC extraction logfile from 20. September 2017, 22:49
Wigwam / Being
Used drive : MATSHITADVD-RAM UJ8B1AS Adapter: 0 ID: 1
Read mode : Secure
Utilize accurate stream : Yes
Defeat audio cache : Yes
Make use of C2 pointers : No
Read offset correction : 6
Overread into Lead-In and Lead-Out : No
Fill up missing offset samples with silence : Yes
Delete leading and trailing silent blocks : No
Null samples used in CRC calculations : Yes
Used interface : Native Win32 interface for Win NT & 2000
Used output format : User Defined Encoder
Selected bitrate : 896 kBit/s
Quality : High
Add ID3 tag : Yes
Command line compressor : D:\DISTRIBUTIVE\WavPack\wavpack-4.80.0-x64\wavpack.exe
Additional command line options : -hm -w "Year=%year%" -w "Genre=%genre%" %source% %dest%
TOC of the extracted CD
Track | Start | Length | Start sector | End sector
---------------------------------------------------------
1 | 0:00.00 | 2:09.55 | 0 | 9729
2 | 2:09.55 | 1:30.62 | 9730 | 16541
3 | 3:40.42 | 2:57.68 | 16542 | 29884
4 | 6:38.35 | 3:17.57 | 29885 | 44716
5 | 9:56.17 | 9:11.40 | 44717 | 86081
6 | 19:07.57 | 4:50.60 | 86082 | 107891
7 | 23:58.42 | 3:10.05 | 107892 | 122146
8 | 27:08.47 | 2:33.30 | 122147 | 133651
9 | 29:42.02 | 6:10.08 | 133652 | 161409
10 | 35:52.10 | 2:28.40 | 161410 | 172549
Range status and errors
Selected range
Filename D:\MUSIC\LOSSLESS\1973 Wigwam – Being [1991,Love - LRCD 92,Austria,CD]\1973 Wigwam – Being [1991,Love - LRCD 92,Austria,CD].wav
Peak level 100.0 %
Extraction speed 3.9 X
Range quality 100.0 %
Test CRC 22B7A454
Copy CRC 22B7A454
Copy OK
No errors occurred
AccurateRip summary
Track 1 cannot be verified as accurate (confidence 2) [4A9F26A8], AccurateRip returned [96F608C6] (AR v2)
Track 2 cannot be verified as accurate (confidence 2) [4EE2B38F], AccurateRip returned [44A22FC7] (AR v2)
Track 3 cannot be verified as accurate (confidence 2) [595B88D7], AccurateRip returned [8CE3561A] (AR v2)
Track 4 cannot be verified as accurate (confidence 2) [4D2CC79A], AccurateRip returned [BA12A56C] (AR v2)
Track 5 cannot be verified as accurate (confidence 2) [DACF6A6D], AccurateRip returned [A96A639D] (AR v2)
Track 6 cannot be verified as accurate (confidence 2) [A0534C47], AccurateRip returned [E65F62E2] (AR v2)
Track 7 cannot be verified as accurate (confidence 2) [9D673841], AccurateRip returned [D3D83B75] (AR v2)
Track 8 cannot be verified as accurate (confidence 2) [14F80E2A], AccurateRip returned [C2F1D963] (AR v2)
Track 9 cannot be verified as accurate (confidence 2) [9407365C], AccurateRip returned [8021F5E6] (AR v2)
Track 10 cannot be verified as accurate (confidence 2) [E30B6174], AccurateRip returned [411407F6] (AR v2)
No tracks could be verified as accurate
You may have a different pressing from the one(s) in the database
End of status report
==== Log checksum D8A18E47D9CD1F68C987ADA4042B871908757CFD190B3201914C39245E5EE0DE ====

Содержание индексной карты (.CUE)

REM GENRE "Progressive Rock"
REM DATE 1974
REM DISCID 6908FC0A
REM COMMENT "ExactAudioCopy v1.0b3"
PERFORMER "Wigwam"
TITLE "Being"
FILE "1973 Wigwam - Being [1991,Love - LRCD 92,Austria,CD].wv" WAVE
TRACK 01 AUDIO
TITLE "Proletarian"
PERFORMER "Wigwam"
INDEX 01 00:00:00
TRACK 02 AUDIO
TITLE "Inspired Machine"
PERFORMER "Wigwam"
INDEX 01 02:09:55
TRACK 03 AUDIO
TITLE "Petty-Bourgeois"
PERFORMER "Wigwam"
INDEX 00 03:37:37
INDEX 01 03:40:42
TRACK 04 AUDIO
TITLE "Pride Of The Biosphere"
PERFORMER "Wigwam"
INDEX 01 06:38:35
TRACK 05 AUDIO
TITLE "Pedagogue"
PERFORMER "Wigwam"
INDEX 00 09:51:70
INDEX 01 09:56:17
TRACK 06 AUDIO
TITLE "Crisader"
PERFORMER "Wigwam"
INDEX 01 19:07:57
TRACK 07 AUDIO
TITLE "Planetist"
PERFORMER "Wigwam"
INDEX 00 23:54:02
INDEX 01 23:58:42
TRACK 08 AUDIO
TITLE "Maestro Mercy"
PERFORMER "Wigwam"
INDEX 01 27:08:47
TRACK 09 AUDIO
TITLE "Prophet"
PERFORMER "Wigwam"
INDEX 00 29:38:07
INDEX 01 29:42:02
TRACK 10 AUDIO
TITLE "Marvelry Skimmer"
PERFORMER "Wigwam"
INDEX 01 35:52:10

DR 11

foobar2000 1.3.9 / Dynamic Range Meter 1.1.1
log date: 2018-03-18 07:22:10
--------------------------------------------------------------------------------
Analyzed: Wigwam / Being
--------------------------------------------------------------------------------
DR Peak RMS Duration Track
--------------------------------------------------------------------------------
DR9 -0.83 dB -12.67 dB 2:10 01-Proletarian
DR10 -1.42 dB -14.44 dB 1:31 02-Inspired Machine
DR13 -0.26 dB -15.64 dB 2:58 03-Petty-Bourgeois
DR15 -0.78 dB -19.67 dB 3:18 04-Pride Of The Biosphere
DR11 0.00 dB -15.01 dB 9:12 05-Pedagogue
DR10 -0.75 dB -13.95 dB 4:51 06-Crisader
DR11 -1.49 dB -15.13 dB 3:10 07-Planetist
DR14 -4.81 dB -21.27 dB 2:33 08-Maestro Mercy
DR11 -0.83 dB -14.79 dB 6:10 09-Prophet
DR10 -0.96 dB -14.32 dB 2:29 10-Marvelry Skimmer
--------------------------------------------------------------------------------
Number of tracks: 10
Official DR value: DR11
Samplerate: 44100 Hz
Channels: 2
Bits per sample: 16
Bitrate: 788 kbps
Codec: WavPack
================================================================================

Об альбоме (сборнике)

Европейский первопресс.
На трекере также представлен ремастер Esoteric Recordings ECLEC2183
Описание на Discogs
[cybertorrent.ru].t41945.torrent 
Торрент: Зарегистрирован [ 2018-03-19 19:00 ] · 38768529AF2AF2F464C5BE235B8C4FC887496A0B

Скачать .torrent

Скачать

18 KB

Статус: проверено
Скачан: 0 раз
Размер: 218 MB
Профиль [ЛС]
Показать сообщения:    

Текущее время: 24-Апр 18:21

Часовой пояс: UTC ± 0



Вы не можете начинать темы
Вы не можете отвечать на сообщения
Вы не можете редактировать свои сообщения
Вы не можете удалять свои сообщения
Вы не можете голосовать в опросах
Вы не можете прикреплять файлы к сообщениям
Вы можете скачивать файлы