Статистика раздачи
Размер:  895 MB   |    Зарегистрирован:  1 месяц 3 дня   |    Скачан:  0 раз

Полного источника не было: Никогда

 
   
 
 

Awrora ®

Пол:
Не указан
Стаж:
2 месяца 7 дней
Сообщений:
624

Greenpeace: Rainbow Warriors
Жанр: Alternative Rock, Pop Rock
Носитель: CD
Страна-производитель диска (релиза): US
Год издания: 1989
Издатель (лейбл): Geffen Records
Номер по каталогу: 9 24236-2
Аудиокодек: FLAC (*.flac)
Тип рипа: tracks+.cue
Битрейт аудио: lossless
Продолжительность: 2:24:33
Источник (релизер): Baewood (APL)
Наличие сканов в содержимом раздачи: нет
Треклист:
CD1
01.U2 - Pride (In the Name of Love) (live) (4:35)
02.The Pretenders - Middle of the Road (4:15)
03.Belinda Carlisle - Heaven Is a Place on Earth (4:07)
04.World Party - Ship of Fools (4:17)
05.Eurythmics - When Tomorrow Comes (4:30)
06.Bryan Ferry - Don’t Stop the Dance (4:22)
07.Sting - Love Is the Seventh Wave (3:32)
08.Aswad - Set Them Free (4:01)
09.Grateful Dead - Throwing Stones (4:25)
10.Little Steven & The Disciples of Soul - Balance (5:18)
11.INXS - This Time (3:10)
12.Thompson Twins - Lay Your Hands on Me (4:23)
13.R.E.M. - It's the End of the World as We Know It (and I Feel Fine) (3:01)
14.Huey Lewis & The News - Small World (4:43)
15.The Silencers - Scottish Rain (7:13)
16.Lou Reed - Last Great American Whale (3:45)
17.Talking Heads - City of Dreams (5:07)
CD2
01.Simple Minds - Waterfront (live) (5:09)
02.Bryan Adams - Somebody (4:44)
03.Peter Gabriel - Red Rain (5:37)
04.Bruce Hornsby & The Range - Look Out Any Window (5:30)
05.John Farnham - You’re the Voice (5:07)
06.The Waterboys - The Whole of the Moon (5:00)
07.Basia - Miles Away (4:13)
08.Terence Trent D’Arby - Let’s Go Forward (5:19)
09.John Mellencamp - We’re the People (4:19)
10.Martin Stephenson and The Daintees - Wholly Humble Heart (5:46)
11.Hothouse Flowers - Hard Rain (4:03)
12.Robbie Robertson - Somewhere Down The Crazy River (4:59)
13.Sade - I Will Be Your Friend (4:45)
14.Dire Straits - Why Worry (5:18)

Лог создания рипа

CD1

Exact Audio Copy V1.1 from 23. June 2015
EAC extraction logfile from 24. January 2017, 14:22
Various Artists / Greenpeace: Rainbow Warriors
Used drive : HL-DT-STDVD-ROM DH20N Adapter: 1 ID: 0
Read mode : Secure
Utilize accurate stream : Yes
Defeat audio cache : Yes
Make use of C2 pointers : No
Read offset correction : 6
Overread into Lead-In and Lead-Out : No
Fill up missing offset samples with silence : Yes
Delete leading and trailing silent blocks : No
Null samples used in CRC calculations : Yes
Used interface : Native Win32 interface for Win NT & 2000
Gap handling : Appended to previous track
Used output format : User Defined Encoder
Selected bitrate : 1024 kBit/s
Quality : High
Add ID3 tag : No
Command line compressor : C:\Program Files\Exact Audio Copy\FLAC\FLAC.EXE
Additional command line options : -8 -e -V -T "ARTIST=%artist%" -T "TITLE=%title%" -T "ALBUM=%albumtitle%" -T "DATE=%year%" -T "TRACKNUMBER=%tracknr%" -T "GENRE=%genre%" -T "PERFORMER=%albuminterpret%" -T "COMPOSER=%composer%" %haslyrics%--tag-from-file=LYRICS="%lyricsfile%"%haslyrics% -T "ALBUMARTIST=%albumartist%" -T "DISCNUMBER=%cdnumber%" -T "TOTALDISCS=%totalcds%" -T "TOTALTRACKS=%numtracks%" -T "COMMENT=%comment%" %source% -o %dest%
TOC of the extracted CD
Track | Start | Length | Start sector | End sector
---------------------------------------------------------
1 | 0:00.00 | 4:34.65 | 0 | 20614
2 | 4:34.65 | 4:14.72 | 20615 | 39736
3 | 8:49.62 | 4:07.05 | 39737 | 58266
4 | 12:56.67 | 4:16.43 | 58267 | 77509
5 | 17:13.35 | 4:30.00 | 77510 | 97759
6 | 21:43.35 | 4:21.57 | 97760 | 117391
7 | 26:05.17 | 3:31.73 | 117392 | 133289
8 | 29:37.15 | 4:01.35 | 133290 | 151399
9 | 33:38.50 | 4:24.55 | 151400 | 171254
10 | 38:03.30 | 5:17.55 | 171255 | 195084
11 | 43:21.10 | 3:09.62 | 195085 | 209321
12 | 46:30.72 | 4:23.20 | 209322 | 229066
13 | 50:54.17 | 3:00.58 | 229067 | 242624
14 | 53:55.00 | 4:42.70 | 242625 | 263844
15 | 58:37.70 | 7:13.07 | 263845 | 296326
16 | 65:51.02 | 3:44.60 | 296327 | 313186
17 | 69:35.62 | 5:06.58 | 313187 | 336194
Track 1
Filename C:\Users\Joe\Music\VARIOUS ARTIST\Greenpeace - Rainbow Warriors - VA - 1989[flac]\DISC 1\01 - Pride (In the Name of Love) (live).wav
Pre-gap length 0:00:02.00
Peak level 94.7 %
Extraction speed 1.1 X
Track quality 99.9 %
Test CRC 6CED8222
Copy CRC 6CED8222
Accurately ripped (confidence 32) [AB73ADA1] (AR v2)
Copy OK
Track 2
Filename C:\Users\Joe\Music\VARIOUS ARTIST\Greenpeace - Rainbow Warriors - VA - 1989[flac]\DISC 1\02 - Middle of the Road.wav
Pre-gap length 0:00:01.80
Peak level 90.8 %
Extraction speed 1.2 X
Track quality 99.9 %
Test CRC 30ECA688
Copy CRC 30ECA688
Accurately ripped (confidence 32) [2BA5C1D6] (AR v2)
Copy OK
Track 3
Filename C:\Users\Joe\Music\VARIOUS ARTIST\Greenpeace - Rainbow Warriors - VA - 1989[flac]\DISC 1\03 - Heaven Is a Place on Earth.wav
Pre-gap length 0:00:02.13
Peak level 96.8 %
Extraction speed 1.6 X
Track quality 100.0 %
Test CRC E08B3592
Copy CRC E08B3592
Accurately ripped (confidence 32) [16C4147B] (AR v2)
Copy OK
Track 4
Filename C:\Users\Joe\Music\VARIOUS ARTIST\Greenpeace - Rainbow Warriors - VA - 1989[flac]\DISC 1\04 - Ship of Fools.wav
Pre-gap length 0:00:02.33
Peak level 100.0 %
Extraction speed 1.7 X
Track quality 100.0 %
Test CRC 286A91F0
Copy CRC 286A91F0
Accurately ripped (confidence 32) [07F1C5BD] (AR v2)
Copy OK
Track 5
Filename C:\Users\Joe\Music\VARIOUS ARTIST\Greenpeace - Rainbow Warriors - VA - 1989[flac]\DISC 1\05 - When Tomorrow Comes.wav
Pre-gap length 0:00:02.40
Peak level 87.2 %
Extraction speed 1.8 X
Track quality 100.0 %
Test CRC E69E7591
Copy CRC E69E7591
Accurately ripped (confidence 32) [40C1AFCC] (AR v2)
Copy OK
Track 6
Filename C:\Users\Joe\Music\VARIOUS ARTIST\Greenpeace - Rainbow Warriors - VA - 1989[flac]\DISC 1\06 - Don't Stop the Dance.wav
Pre-gap length 0:00:02.40
Peak level 100.0 %
Extraction speed 1.9 X
Track quality 100.0 %
Test CRC 3E0F8BB6
Copy CRC 3E0F8BB6
Accurately ripped (confidence 32) [ACB07728] (AR v2)
Copy OK
Track 7
Filename C:\Users\Joe\Music\VARIOUS ARTIST\Greenpeace - Rainbow Warriors - VA - 1989[flac]\DISC 1\07 - Love Is the Seventh Wave.wav
Pre-gap length 0:00:01.76
Peak level 93.8 %
Extraction speed 2.0 X
Track quality 100.0 %
Test CRC DB9875F0
Copy CRC DB9875F0
Accurately ripped (confidence 32) [7508077E] (AR v2)
Copy OK
Track 8
Filename C:\Users\Joe\Music\VARIOUS ARTIST\Greenpeace - Rainbow Warriors - VA - 1989[flac]\DISC 1\08 - Set Them Free.wav
Pre-gap length 0:00:02.57
Peak level 77.8 %
Extraction speed 2.1 X
Track quality 100.0 %
Test CRC 8DFAEC2B
Copy CRC 8DFAEC2B
Accurately ripped (confidence 32) [91B48DD8] (AR v2)
Copy OK
Track 9
Filename C:\Users\Joe\Music\VARIOUS ARTIST\Greenpeace - Rainbow Warriors - VA - 1989[flac]\DISC 1\09 - Throwing Stones.wav
Pre-gap length 0:00:02.73
Peak level 99.8 %
Extraction speed 2.2 X
Track quality 100.0 %
Test CRC 35357ADA
Copy CRC 35357ADA
Accurately ripped (confidence 32) [791C4617] (AR v2)
Copy OK
Track 10
Filename C:\Users\Joe\Music\VARIOUS ARTIST\Greenpeace - Rainbow Warriors - VA - 1989[flac]\DISC 1\10 - Balance.wav
Pre-gap length 0:00:01.00
Peak level 99.9 %
Extraction speed 1.7 X
Track quality 99.9 %
Test CRC 303110F2
Copy CRC 303110F2
Accurately ripped (confidence 31) [943A1169] (AR v2)
Copy OK
Track 11
Filename C:\Users\Joe\Music\VARIOUS ARTIST\Greenpeace - Rainbow Warriors - VA - 1989[flac]\DISC 1\11 - This Time.wav
Pre-gap length 0:00:01.97
Peak level 80.5 %
Extraction speed 2.2 X
Track quality 100.0 %
Test CRC 5FA74A0A
Copy CRC 5FA74A0A
Accurately ripped (confidence 31) [539A1DCE] (AR v2)
Copy OK
Track 12
Filename C:\Users\Joe\Music\VARIOUS ARTIST\Greenpeace - Rainbow Warriors - VA - 1989[flac]\DISC 1\12 - Lay Your Hands on Me.wav
Pre-gap length 0:00:02.02
Peak level 100.0 %
Extraction speed 1.6 X
Track quality 99.9 %
Test CRC 892BE742
Copy CRC 892BE742
Accurately ripped (confidence 31) [82EC5DAB] (AR v2)
Copy OK
Track 13
Filename C:\Users\Joe\Music\VARIOUS ARTIST\Greenpeace - Rainbow Warriors - VA - 1989[flac]\DISC 1\13 - It's the End of the World as We Know It (and I Feel Fine).wav
Pre-gap length 0:00:01.49
Peak level 85.6 %
Extraction speed 2.3 X
Track quality 100.0 %
Test CRC 41FFDEEC
Copy CRC 41FFDEEC
Accurately ripped (confidence 32) [0AEFAAF4] (AR v2)
Copy OK
Track 14
Filename C:\Users\Joe\Music\VARIOUS ARTIST\Greenpeace - Rainbow Warriors - VA - 1989[flac]\DISC 1\14 - Small World.wav
Pre-gap length 0:00:01.53
Peak level 100.0 %
Extraction speed 2.6 X
Track quality 100.0 %
Test CRC 009ED0EA
Copy CRC 009ED0EA
Accurately ripped (confidence 30) [BA4BE1D1] (AR v2)
Copy OK
Track 15
Filename C:\Users\Joe\Music\VARIOUS ARTIST\Greenpeace - Rainbow Warriors - VA - 1989[flac]\DISC 1\15 - Scottish Rain.wav
Pre-gap length 0:00:01.00
Peak level 95.9 %
Extraction speed 2.8 X
Track quality 100.0 %
Test CRC 6E2E8CE5
Copy CRC 6E2E8CE5
Accurately ripped (confidence 31) [2024FEBD] (AR v2)
Copy OK
Track 16
Filename C:\Users\Joe\Music\VARIOUS ARTIST\Greenpeace - Rainbow Warriors - VA - 1989[flac]\DISC 1\16 - Last Great American Whale.wav
Pre-gap length 0:00:01.76
Peak level 91.7 %
Extraction speed 2.7 X
Track quality 100.0 %
Test CRC D1CE58D6
Copy CRC D1CE58D6
Accurately ripped (confidence 30) [699ECE77] (AR v2)
Copy OK
Track 17
Filename C:\Users\Joe\Music\VARIOUS ARTIST\Greenpeace - Rainbow Warriors - VA - 1989[flac]\DISC 1\17 - City of Dreams.wav
Pre-gap length 0:00:02.16
Peak level 84.7 %
Extraction speed 1.9 X
Track quality 99.9 %
Test CRC 30A0E192
Copy CRC 30A0E192
Accurately ripped (confidence 29) [105D2C37] (AR v2)
Copy OK
All tracks accurately ripped
No errors occurred
End of status report
---- CUETools DB Plugin V2.1.6
[CTDB TOCID: 0F2eD.YzCNcDRGavDLY7zmFydCg-] found
Submit result: 0F2eD.YzCNcDRGavDLY7zmFydCg- has been confirmed
Track | CTDB Status
1 | (33/45) Accurately ripped
2 | (33/45) Accurately ripped
3 | (33/45) Accurately ripped
4 | (33/45) Accurately ripped
5 | (33/45) Accurately ripped
6 | (33/45) Accurately ripped
7 | (33/45) Accurately ripped
8 | (33/45) Accurately ripped
9 | (33/45) Accurately ripped
10 | (32/45) Accurately ripped
11 | (32/45) Accurately ripped
12 | (32/45) Accurately ripped
13 | (32/45) Accurately ripped
14 | (33/45) Accurately ripped
15 | (32/45) Accurately ripped
16 | (33/45) Accurately ripped
17 | (33/45) Accurately ripped
==== Log checksum 1F51CE764B9675CD8D3506F1A583F946D0117E870B79A1F82801F8DCDC6EC061 ====

CD2

Exact Audio Copy V1.1 from 23. June 2015
EAC extraction logfile from 24. January 2017, 16:39
Various Artists / Greenpeace: Rainbow Warriors
Used drive : HL-DT-STDVD-ROM DH20N Adapter: 1 ID: 0
Read mode : Secure
Utilize accurate stream : Yes
Defeat audio cache : Yes
Make use of C2 pointers : No
Read offset correction : 6
Overread into Lead-In and Lead-Out : No
Fill up missing offset samples with silence : Yes
Delete leading and trailing silent blocks : No
Null samples used in CRC calculations : Yes
Used interface : Native Win32 interface for Win NT & 2000
Gap handling : Appended to previous track
Used output format : User Defined Encoder
Selected bitrate : 1024 kBit/s
Quality : High
Add ID3 tag : No
Command line compressor : C:\Program Files\Exact Audio Copy\FLAC\FLAC.EXE
Additional command line options : -8 -e -V -T "ARTIST=%artist%" -T "TITLE=%title%" -T "ALBUM=%albumtitle%" -T "DATE=%year%" -T "TRACKNUMBER=%tracknr%" -T "GENRE=%genre%" -T "PERFORMER=%albuminterpret%" -T "COMPOSER=%composer%" %haslyrics%--tag-from-file=LYRICS="%lyricsfile%"%haslyrics% -T "ALBUMARTIST=%albumartist%" -T "DISCNUMBER=%cdnumber%" -T "TOTALDISCS=%totalcds%" -T "TOTALTRACKS=%numtracks%" -T "COMMENT=%comment%" %source% -o %dest%
TOC of the extracted CD
Track | Start | Length | Start sector | End sector
---------------------------------------------------------
1 | 0:00.00 | 5:08.47 | 0 | 23146
2 | 5:08.47 | 4:44.28 | 23147 | 44474
3 | 9:53.00 | 5:37.20 | 44475 | 69769
4 | 15:30.20 | 5:29.45 | 69770 | 94489
5 | 20:59.65 | 5:07.00 | 94490 | 117514
6 | 26:06.65 | 5:00.37 | 117515 | 140051
7 | 31:07.27 | 4:12.68 | 140052 | 159019
8 | 35:20.20 | 5:19.37 | 159020 | 182981
9 | 40:39.57 | 4:19.13 | 182982 | 202419
10 | 44:58.70 | 5:46.15 | 202420 | 228384
11 | 50:45.10 | 4:02.67 | 228385 | 246601
12 | 54:48.02 | 4:59.35 | 246602 | 269061
13 | 59:47.37 | 4:44.70 | 269062 | 290431
14 | 64:32.32 | 5:18.18 | 290432 | 314299
Track 1
Filename C:\Users\Joe\Music\VARIOUS ARTIST\Greenpeace - Rainbow Warriors - VA - 1989[flac]\Disc 2\01 - Waterfront (live).wav
Pre-gap length 0:00:02.00
Peak level 96.5 %
Extraction speed 1.4 X
Track quality 100.0 %
Test CRC 7CE460A0
Copy CRC 7CE460A0
Accurately ripped (confidence 31) [25E2E05A] (AR v2)
Copy OK
Track 2
Filename C:\Users\Joe\Music\VARIOUS ARTIST\Greenpeace - Rainbow Warriors - VA - 1989[flac]\Disc 2\02 - Somebody.wav
Pre-gap length 0:00:01.82
Peak level 88.5 %
Extraction speed 1.5 X
Track quality 100.0 %
Test CRC 7F0630C7
Copy CRC 7F0630C7
Accurately ripped (confidence 31) [8401B03C] (AR v2)
Copy OK
Track 3
Filename C:\Users\Joe\Music\VARIOUS ARTIST\Greenpeace - Rainbow Warriors - VA - 1989[flac]\Disc 2\03 - Red Rain.wav
Pre-gap length 0:00:02.06
Peak level 82.0 %
Extraction speed 1.7 X
Track quality 100.0 %
Test CRC EB9BCE1E
Copy CRC EB9BCE1E
Accurately ripped (confidence 31) [19F6E301] (AR v2)
Copy OK
Track 4
Filename C:\Users\Joe\Music\VARIOUS ARTIST\Greenpeace - Rainbow Warriors - VA - 1989[flac]\Disc 2\04 - Look Out Any Window.wav
Pre-gap length 0:00:02.40
Peak level 96.2 %
Extraction speed 1.8 X
Track quality 100.0 %
Test CRC 9A936767
Copy CRC 9A936767
Accurately ripped (confidence 31) [AF2DD7F7] (AR v2)
Copy OK
Track 5
Filename C:\Users\Joe\Music\VARIOUS ARTIST\Greenpeace - Rainbow Warriors - VA - 1989[flac]\Disc 2\05 - You're the Voice.wav
Pre-gap length 0:00:01.80
Peak level 67.4 %
Extraction speed 2.0 X
Track quality 100.0 %
Test CRC CA9434BA
Copy CRC CA9434BA
Accurately ripped (confidence 30) [6E32B5AF] (AR v2)
Copy OK
Track 6
Filename C:\Users\Joe\Music\VARIOUS ARTIST\Greenpeace - Rainbow Warriors - VA - 1989[flac]\Disc 2\06 - The Whole of the Moon.wav
Pre-gap length 0:00:01.50
Peak level 83.6 %
Extraction speed 2.1 X
Track quality 100.0 %
Test CRC 287B8A26
Copy CRC 287B8A26
Accurately ripped (confidence 31) [D03FC4BE] (AR v2)
Copy OK
Track 7
Filename C:\Users\Joe\Music\VARIOUS ARTIST\Greenpeace - Rainbow Warriors - VA - 1989[flac]\Disc 2\07 - Miles Away.wav
Pre-gap length 0:00:02.53
Peak level 97.5 %
Extraction speed 2.1 X
Track quality 100.0 %
Test CRC 8D2FA36C
Copy CRC 8D2FA36C
Accurately ripped (confidence 31) [75EFE255] (AR v2)
Copy OK
Track 8
Filename C:\Users\Joe\Music\VARIOUS ARTIST\Greenpeace - Rainbow Warriors - VA - 1989[flac]\Disc 2\08 - Let's Go Forward.wav
Pre-gap length 0:00:02.53
Peak level 76.0 %
Extraction speed 2.3 X
Track quality 100.0 %
Test CRC A3A9CA7D
Copy CRC A3A9CA7D
Accurately ripped (confidence 30) [DB4020D5] (AR v2)
Copy OK
Track 9
Filename C:\Users\Joe\Music\VARIOUS ARTIST\Greenpeace - Rainbow Warriors - VA - 1989[flac]\Disc 2\09 - We're the People.wav
Pre-gap length 0:00:01.93
Peak level 93.7 %
Extraction speed 2.3 X
Track quality 100.0 %
Test CRC 0AC09D82
Copy CRC 0AC09D82
Accurately ripped (confidence 30) [28CD7C16] (AR v2)
Copy OK
Track 10
Filename C:\Users\Joe\Music\VARIOUS ARTIST\Greenpeace - Rainbow Warriors - VA - 1989[flac]\Disc 2\10 - Wholly Humble Heart.wav
Pre-gap length 0:00:02.04
Peak level 89.9 %
Extraction speed 2.5 X
Track quality 100.0 %
Test CRC F052615D
Copy CRC F052615D
Accurately ripped (confidence 31) [B6043FF0] (AR v2)
Copy OK
Track 11
Filename C:\Users\Joe\Music\VARIOUS ARTIST\Greenpeace - Rainbow Warriors - VA - 1989[flac]\Disc 2\11 - Hard Rain.wav
Pre-gap length 0:00:01.84
Peak level 90.8 %
Extraction speed 2.5 X
Track quality 100.0 %
Test CRC B322A2C7
Copy CRC B322A2C7
Accurately ripped (confidence 29) [AC49554C] (AR v2)
Copy OK
Track 12
Filename C:\Users\Joe\Music\VARIOUS ARTIST\Greenpeace - Rainbow Warriors - VA - 1989[flac]\Disc 2\12 - Somewhere Down The Crazy River.wav
Pre-gap length 0:00:02.29
Peak level 81.8 %
Extraction speed 1.8 X
Track quality 99.9 %
Test CRC 0D59AD4C
Copy CRC 0D59AD4C
Accurately ripped (confidence 29) [EF1C8171] (AR v2)
Copy OK
Track 13
Filename C:\Users\Joe\Music\VARIOUS ARTIST\Greenpeace - Rainbow Warriors - VA - 1989[flac]\Disc 2\13 - I Will Be Your Friend.wav
Pre-gap length 0:00:01.13
Peak level 85.8 %
Extraction speed 2.7 X
Track quality 100.0 %
Test CRC 4D4ACB08
Copy CRC 4D4ACB08
Accurately ripped (confidence 29) [08057C9F] (AR v2)
Copy OK
Track 14
Filename C:\Users\Joe\Music\VARIOUS ARTIST\Greenpeace - Rainbow Warriors - VA - 1989[flac]\Disc 2\14 - Why Worry.wav
Pre-gap length 0:00:02.20
Peak level 75.8 %
Extraction speed 2.8 X
Track quality 100.0 %
Test CRC 33E18C9D
Copy CRC 33E18C9D
Accurately ripped (confidence 28) [71E41E93] (AR v2)
Copy OK
All tracks accurately ripped
No errors occurred
End of status report
---- CUETools DB Plugin V2.1.6
[CTDB TOCID: YpdyPmdJpMP8bqBrBA4d5sc_gEU-] found
Submit result: YpdyPmdJpMP8bqBrBA4d5sc_gEU- has been confirmed
Track | CTDB Status
1 | (36/37) Accurately ripped
2 | (36/37) Accurately ripped
3 | (37/37) Accurately ripped
4 | (37/37) Accurately ripped
5 | (37/37) Accurately ripped
6 | (37/37) Accurately ripped
7 | (37/37) Accurately ripped
8 | (37/37) Accurately ripped
9 | (37/37) Accurately ripped
10 | (37/37) Accurately ripped
11 | (37/37) Accurately ripped
12 | (37/37) Accurately ripped
13 | (37/37) Accurately ripped
14 | (37/37) Accurately ripped
==== Log checksum E350BE0201EB85AEFB5DA564E2F45689DC18467636E87DEE8552384005549318 ====

Содержание индексной карты (.CUE)

CD1

REM DATE 1989
REM DISCID F7118211
REM COMMENT "ExactAudioCopy v1.1"
PERFORMER "Various Artists"
TITLE "Greenpeace: Rainbow Warriors"
FILE "01 - Pride (In the Name of Love) (live).wav" WAVE
TRACK 01 AUDIO
TITLE "Pride (In the Name of Love) (live)"
PERFORMER "U2"
INDEX 01 00:00:00
TRACK 02 AUDIO
TITLE "Middle of the Road"
PERFORMER "The Pretenders"
INDEX 00 04:33:05
FILE "02 - Middle of the Road.wav" WAVE
INDEX 01 00:00:00
TRACK 03 AUDIO
TITLE "Heaven Is a Place on Earth"
PERFORMER "Belinda Carlisle"
INDEX 00 04:12:62
FILE "03 - Heaven Is a Place on Earth.wav" WAVE
INDEX 01 00:00:00
TRACK 04 AUDIO
TITLE "Ship of Fools"
PERFORMER "World Party"
INDEX 00 04:04:55
FILE "04 - Ship of Fools.wav" WAVE
INDEX 01 00:00:00
TRACK 05 AUDIO
TITLE "When Tomorrow Comes"
PERFORMER "Eurythmics"
INDEX 00 04:14:13
FILE "05 - When Tomorrow Comes.wav" WAVE
INDEX 01 00:00:00
TRACK 06 AUDIO
TITLE "Don't Stop The Dance"
PERFORMER "Bryan Ferry"
INDEX 00 04:27:45
FILE "06 - Don't Stop The Dance.wav" WAVE
INDEX 01 00:00:00
TRACK 07 AUDIO
TITLE "Love Is the Seventh Wave"
PERFORMER "Sting"
INDEX 00 04:20:00
FILE "07 - Love Is the Seventh Wave.wav" WAVE
INDEX 01 00:00:00
TRACK 08 AUDIO
TITLE "Set Them Free"
PERFORMER "Aswad"
INDEX 00 03:29:30
FILE "08 - Set Them Free.wav" WAVE
INDEX 01 00:00:00
TRACK 09 AUDIO
TITLE "Throwing Stones"
PERFORMER "Grateful Dead"
INDEX 00 03:58:55
FILE "09 - Throwing Stones.wav" WAVE
INDEX 01 00:00:00
TRACK 10 AUDIO
TITLE "Balance"
PERFORMER "Little Steven & The Disciples of Soul"
INDEX 00 04:23:55
FILE "10 - Balance.wav" WAVE
INDEX 01 00:00:00
TRACK 11 AUDIO
TITLE "This Time"
PERFORMER "INXS"
INDEX 00 05:15:57
FILE "11 - This Time.wav" WAVE
INDEX 01 00:00:00
TRACK 12 AUDIO
TITLE "Lay Your Hands on Me"
PERFORMER "Thompson Twins"
INDEX 00 03:07:60
FILE "12 - Lay Your Hands on Me.wav" WAVE
INDEX 01 00:00:00
TRACK 13 AUDIO
TITLE "It's The End Of The World As We Know It (And I Feel Fine)"
PERFORMER "R.E.M."
INDEX 00 04:21:58
FILE "13 - It's The End Of The World As We Know It (And I Feel Fine).wav" WAVE
INDEX 01 00:00:00
TRACK 14 AUDIO
TITLE "Small World"
PERFORMER "Huey Lewis And The News"
INDEX 00 02:59:18
FILE "14 - Small World.wav" WAVE
INDEX 01 00:00:00
TRACK 15 AUDIO
TITLE "Scottish Rain"
PERFORMER "The Silencers"
INDEX 00 04:41:70
FILE "15 - Scottish Rain.wav" WAVE
INDEX 01 00:00:00
TRACK 16 AUDIO
TITLE "Last Great American Whale"
PERFORMER "Lou Reed"
INDEX 00 07:11:25
FILE "16 - Last Great American Whale.wav" WAVE
INDEX 01 00:00:00
TRACK 17 AUDIO
TITLE "City of Dreams"
PERFORMER "Talking Heads"
INDEX 00 03:42:48
FILE "17 - City of Dreams.wav" WAVE
INDEX 01 00:00:00

CD2

REM DATE 1989
REM DISCID C3105E0E
REM COMMENT "ExactAudioCopy v1.1"
PERFORMER "Various Artists"
TITLE "Greenpeace: Rainbow Warriors"
FILE "01 - Waterfront (live).wav" WAVE
TRACK 01 AUDIO
TITLE "Waterfront (live)"
PERFORMER "Simple Minds"
INDEX 01 00:00:00
TRACK 02 AUDIO
TITLE "Somebody"
PERFORMER "Bryan Adams"
INDEX 00 05:06:60
FILE "02 - Somebody.wav" WAVE
INDEX 01 00:00:00
TRACK 03 AUDIO
TITLE "Red Rain"
PERFORMER "Peter Gabriel"
INDEX 00 04:42:23
FILE "03 - Red Rain.wav" WAVE
INDEX 01 00:00:00
TRACK 04 AUDIO
TITLE "Look Out Any Window"
PERFORMER "Bruce Hornsby & The Range"
INDEX 00 05:34:65
FILE "04 - Look Out Any Window.wav" WAVE
INDEX 01 00:00:00
TRACK 05 AUDIO
TITLE "You’re the Voice"
PERFORMER "John Farnham"
INDEX 00 05:27:60
FILE "05 - You’re the Voice.wav" WAVE
INDEX 01 00:00:00
TRACK 06 AUDIO
TITLE "The Whole of the Moon"
PERFORMER "The Waterboys"
INDEX 00 05:05:37
FILE "06 - The Whole of the Moon.wav" WAVE
INDEX 01 00:00:00
TRACK 07 AUDIO
TITLE "Miles Away"
PERFORMER "Basia"
INDEX 00 04:57:72
FILE "07 - Miles Away.wav" WAVE
INDEX 01 00:00:00
TRACK 08 AUDIO
TITLE "Let’s Go Forward"
PERFORMER "Terence Trent D’Arby"
INDEX 00 04:10:28
FILE "08 - Let’s Go Forward.wav" WAVE
INDEX 01 00:00:00
TRACK 09 AUDIO
TITLE "We’re the People"
PERFORMER "John Mellencamp"
INDEX 00 05:17:42
FILE "09 - We’re the People.wav" WAVE
INDEX 01 00:00:00
TRACK 10 AUDIO
TITLE "Wholly Humble Heart"
PERFORMER "Martin Stephenson and The Daintees"
INDEX 00 04:17:10
FILE "10 - Wholly Humble Heart.wav" WAVE
INDEX 01 00:00:00
TRACK 11 AUDIO
TITLE "Hard Rain"
PERFORMER "Hothouse Flowers"
INDEX 00 05:44:27
FILE "11 - Hard Rain.wav" WAVE
INDEX 01 00:00:00
TRACK 12 AUDIO
TITLE "Somewhere Down The Crazy River"
PERFORMER "Robbie Robertson"
INDEX 00 04:00:45
FILE "12 - Somewhere Down The Crazy River.wav" WAVE
INDEX 01 00:00:00
TRACK 13 AUDIO
TITLE "I Will Be Your Friend"
PERFORMER "Sade"
INDEX 00 04:58:25
FILE "13 - I Will Be Your Friend.wav" WAVE
INDEX 01 00:00:00
TRACK 14 AUDIO
TITLE "Why Worry"
PERFORMER "Dire Straits"
INDEX 00 04:42:55
FILE "14 - Why Worry.wav" WAVE
INDEX 01 00:00:00

Скриншот спектра частот

Доп. информация: https://www.discogs.com/Various-Greenpeace-Rainbow-Warriors/release/1651807
[cybertorrent.ru].t41950.torrent 
Торрент: Зарегистрирован [ 2018-03-19 19:00 ] · 2F3CC3D61E1DA752B6D2FF13520018F04A3F69AF

Скачать .torrent

Скачать

20 KB

Статус: проверено
Скачан: 0 раз
Размер: 895 MB
Профиль [ЛС]
Показать сообщения:    

Текущее время: 22-Апр 23:55

Часовой пояс: UTC ± 0



Вы не можете начинать темы
Вы не можете отвечать на сообщения
Вы не можете редактировать свои сообщения
Вы не можете удалять свои сообщения
Вы не можете голосовать в опросах
Вы не можете прикреплять файлы к сообщениям
Вы можете скачивать файлы