Статистика раздачи
Размер:  353 MB   |    Зарегистрирован:  1 месяц 4 дня   |    Скачан:  0 раз

Полного источника не было: Никогда

 
   
 
 

kex ®

Пол:
Не указан
Стаж:
2 месяца 9 дней
Сообщений:
324

Kekko Fornarelli / Abaton
Жанр: Contemporary Jazz / Fusion
Носитель: WEB
Год издания: 2018
Издатель (лейбл): Web Release [Eskape Music]
Страна исполнителя (группы): Italy
Аудиокодек: FLAC (*.flac)
Тип рипа: tracks
Битрейт аудио: lossless
Продолжительность: 59:28 min
Источник (релизер): qobuz.com
Наличие сканов в содержимом раздачи:
Треклист:
1. The Drop And The Rock. 7:21
2. In The Name Of The Fathers. 9:16
3. Lonesome Tears. 7:30
4. Apnea. 5:24
5. The Joy Shop. 6:03
6. Gulls On The Bosphorus. 8:16
7. Upset Nights. 8:59
8. Abaton. 6:35

Лог DRM

foobar2000 1.3.8 / Dynamic Range Meter 1.1.1
log date: 2018-03-18 01:58:24
--------------------------------------------------------------------------------
Analyzed: Kekko Fornarelli / Abaton
--------------------------------------------------------------------------------
DR Peak RMS Duration Track
--------------------------------------------------------------------------------
DR6 -0.22 dB -8.35 dB 7:22 01-The Drop and the Rock
DR7 0.00 dB -10.84 dB 9:17 02-In the Name of the Fathers
DR6 -0.34 dB -10.20 dB 7:30 03-Lonesome Tears
DR6 -0.43 dB -11.50 dB 5:24 04-Apnea
DR6 -0.28 dB -7.76 dB 6:04 05-The Joy Shop
DR6 0.00 dB -10.13 dB 8:16 06-Gulls on the Bosphorus
DR6 -0.27 dB -9.81 dB 8:59 07-Upset Nights
DR6 -0.16 dB -9.61 dB 6:36 08-Abaton
--------------------------------------------------------------------------------
Number of tracks: 8
Official DR value: DR6
Samplerate: 44100 Hz
Channels: 2
Bits per sample: 16
Bitrate: 811 kbps
Codec: FLAC
================================================================================

Лог проверки качества

-----------------------
DON'T MODIFY THIS FILE
-----------------------
PERFORMER: auCDtect Task Manager, ver. 1.6.0 RC1 build 1.6.0.1
Copyright (c) 2008-2010 y-soft. All rights reserved
http://y-soft.org
ANALYZER: auCDtect: CD records authenticity detector, version 0.8.2
Copyright (c) 2004 Oleg Berngardt. All rights reserved.
Copyright (c) 2004 Alexander Djourik. All rights reserved.
FILE: 01. The Drop and the Rock.flac
Size: 50244694 Hash: AD00545EB4829ED7974FC0759A1448F5 Accuracy: -m0
Conclusion: CDDA 100%
Signature: 07FE3CAFA4323ABCE75C3DF6D6A24CEED7DA4D88
FILE: 02. In the Name of the Fathers.flac
Size: 55210485 Hash: 24E7877F562BD433572B0489BDFE5FFE Accuracy: -m0
Conclusion: CDDA 100%
Signature: 983E20FDFC5D7331D667ED1A02BBF18D591DC95F
FILE: 03. Lonesome Tears.flac
Size: 45945460 Hash: 84A833C4B39FC9DB64F46AF8B6CE2DBE Accuracy: -m0
Conclusion: CDDA 100%
Signature: D419D4BFE3DF84037BBD0461C71353735CE2134E
FILE: 04. Apnea.flac
Size: 28695224 Hash: D6DFD313389EC7C2141DC08A30D6ED6B Accuracy: -m0
Conclusion: CDDA 100%
Signature: C9F7D836DA37366F5ED0298030717372EE2A561C
FILE: 05. The Joy Shop.flac
Size: 42529479 Hash: 50AE725CCBF64A7E2669B092D8B61EB5 Accuracy: -m0
Conclusion: CDDA 100%
Signature: 34C3CB71FFA5A774631A67B6869496CD2DDF7519
FILE: 06. Gulls on the Bosphorus.flac
Size: 48303373 Hash: B2BB9F4A40DB314F9D7510A6361453BB Accuracy: -m0
Conclusion: CDDA 99%
Signature: 56161CA9D296FA09357B2A2DF13349D8FFE74827
FILE: 07. Upset Nights.flac
Size: 56003054 Hash: 648FE1AB7B3E287553F228C4792E3803 Accuracy: -m0
Conclusion: CDDA 100%
Signature: 9424164A083DB7CD7F10490EA31AD52D31CA8F2A
FILE: 08. Abaton.flac
Size: 40253513 Hash: 5B1892678BF968377BE98D768A8D76A1 Accuracy: -m0
Conclusion: CDDA 100%
Signature: 958AC6EF60A438BC206BA0982F0647F4DB1AEA34

Состав

- Kekko Fornarelli / piano, synth, samples
- Federico Pecoraro / electric bass
- Dario Congedo / drums
Featuring:
- Leo Gadaleta / strings arranger & conductor (4,8)
[cybertorrent.ru].t41952.torrent 
Торрент: Зарегистрирован [ 2018-03-19 19:00 ] · 79486EAA27777E0046FABDBE0E47C9A59C294742

Скачать .torrent

Скачать

15 KB

Статус: проверено
Скачан: 0 раз
Размер: 353 MB
Профиль [ЛС]
Показать сообщения:    

Текущее время: 24-Апр 18:21

Часовой пояс: UTC ± 0



Вы не можете начинать темы
Вы не можете отвечать на сообщения
Вы не можете редактировать свои сообщения
Вы не можете удалять свои сообщения
Вы не можете голосовать в опросах
Вы не можете прикреплять файлы к сообщениям
Вы можете скачивать файлы