Статистика раздачи
Размер:  652 MB   |    Зарегистрирован:  1 месяц 4 дня   |    Скачан:  0 раз

Полного источника не было: Никогда

 
   
 
 

Angel ®

Пол:
Не указан
Стаж:
2 месяца 9 дней
Сообщений:
290

Element of Crime / Fremde Federn
Жанр: Pop-Rock
Носитель: CD
Страна-производитель диска (релиза): Germany
Год издания: 2010
Издатель (лейбл): Universal
Номер по каталогу: 52631433
Страна исполнителя (группы): Germany
Аудиокодек: FLAC (*.flac)
Тип рипа: image+.cue
Битрейт аудио: lossless
Продолжительность: 01:11:18
Источник (релизер): GolemXIV
Наличие сканов в содержимом раздачи: да
Треклист:
01. Heimweh 4:41
02. My Bonnie Is Over The Ocean 3:17
03. It's All Over Now, Baby Blue 4:48
04. Spooky 3:40
05. Leider Nur Ein Vakuum 4:10
06. Auf Der Espressomaschine 3:05
07. Motorcycle Song 2:53
08. Hamburg 75 3:42
09. Blaumeise Yvonne 3:36
10. I Started A Joke 3:49
11. You Only Tell Me You Love Me When You're Drunk 2:50
12. Last Christmas 3:20
13. Ruf Aus Der Gruft (instr.) 2:21
14. Das Lied Von Der Unzulänglichkeit Menschlichen Strebens 3:42
15. Zwei Gitarren 2:56
16. Akkordeon 3:55
17. Le Vent Nous Portera 4:10
18. She Brings The Rain 2:40
19. Leise Rieselt Der Schnee 3:51
20. Across The Universe 3:38

Лог создания рипа

Exact Audio Copy V1.3 from 2. September 2016
EAC extraction logfile from 16. March 2018, 16:58
Element of Crime / Fremde Federn
Used drive : MATSHITADVD-RAM UJ8B1AS Adapter: 1 ID: 0
Read mode : Secure
Utilize accurate stream : Yes
Defeat audio cache : Yes
Make use of C2 pointers : No
Read offset correction : 6
Overread into Lead-In and Lead-Out : No
Fill up missing offset samples with silence : Yes
Delete leading and trailing silent blocks : No
Null samples used in CRC calculations : Yes
Used interface : Native Win32 interface for Win NT & 2000
Used output format : User Defined Encoder
Selected bitrate : 768 kBit/s
Quality : High
Add ID3 tag : No
Command line compressor : D:\Music\Exact Audio Copy\FLAC\FLAC.EXE
Additional command line options : -6 -V -T "ARTIST=%artist%" -T "TITLE=%title%" -T "ALBUM=%albumtitle%" -T "DATE=%year%" -T "TRACKNUMBER=%tracknr%" -T "GENRE=%genre%" -T "COMMENT=%comment%" -T "BAND=%albuminterpret%" -T "ALBUMARTIST=%albuminterpret%" -T "COMPOSER=%composer%" %haslyrics%--tag-from-file=LYRICS="%lyricsfile%"%haslyrics% -T "DISCNUMBER=%cdnumber%" -T "TOTALDISCS=%totalcds%" -T "TOTALTRACKS=%numtracks%" %hascover%--picture="%coverfile%"%hascover% %source% -o %dest%
TOC of the extracted CD
Track | Start | Length | Start sector | End sector
---------------------------------------------------------
1 | 0:00.00 | 4:27.12 | 0 | 20036
2 | 4:27.12 | 3:17.42 | 20037 | 34853
3 | 7:44.54 | 4:49.68 | 34854 | 56596
4 | 12:34.47 | 3:42.71 | 56597 | 73317
5 | 16:17.43 | 4:12.47 | 73318 | 92264
6 | 20:30.15 | 3:07.62 | 92265 | 106351
7 | 23:38.02 | 2:54.27 | 106352 | 119428
8 | 26:32.29 | 3:36.14 | 119429 | 135642
9 | 30:08.43 | 3:37.29 | 135643 | 151946
10 | 33:45.72 | 3:52.27 | 151947 | 169373
11 | 37:38.24 | 2:49.11 | 169374 | 182059
12 | 40:27.35 | 3:23.66 | 182060 | 197350
13 | 43:51.26 | 2:22.04 | 197351 | 208004
14 | 46:13.30 | 3:42.25 | 208005 | 224679
15 | 49:55.55 | 2:58.50 | 224680 | 238079
16 | 52:54.30 | 3:58.15 | 238080 | 255944
17 | 56:52.45 | 4:10.74 | 255945 | 274768
18 | 61:03.44 | 2:42.40 | 274769 | 286958
19 | 63:46.09 | 3:54.18 | 286959 | 304526
20 | 67:40.27 | 3:37.51 | 304527 | 320852
Range status and errors
Selected range
Filename D:\Downloads\Element of Crime - Fremde Federn\Element of Crime - Fremde Federn.wav
Peak level 100.0 %
Extraction speed 5.0 X
Range quality 100.0 %
Test CRC E6E4FFFA
Copy CRC E6E4FFFA
Copy OK
No errors occurred
AccurateRip summary
Track 1 accurately ripped (confidence 80) [4B02A2CA] (AR v2)
Track 2 accurately ripped (confidence 80) [6369AFC3] (AR v2)
Track 3 accurately ripped (confidence 79) [80768584] (AR v2)
Track 4 accurately ripped (confidence 79) [A42566C1] (AR v2)
Track 5 accurately ripped (confidence 79) [E7B6A976] (AR v2)
Track 6 accurately ripped (confidence 79) [48E15FA6] (AR v2)
Track 7 accurately ripped (confidence 79) [D3BF2005] (AR v2)
Track 8 accurately ripped (confidence 79) [9DFD2338] (AR v2)
Track 9 accurately ripped (confidence 78) [0D7EC8E0] (AR v2)
Track 10 accurately ripped (confidence 78) [1EC32A83] (AR v2)
Track 11 accurately ripped (confidence 79) [FA3ED76D] (AR v2)
Track 12 accurately ripped (confidence 78) [0C377012] (AR v2)
Track 13 accurately ripped (confidence 80) [2EBB3BB3] (AR v2)
Track 14 accurately ripped (confidence 79) [3DEDA477] (AR v2)
Track 15 accurately ripped (confidence 77) [58A69639] (AR v2)
Track 16 accurately ripped (confidence 80) [57525957] (AR v2)
Track 17 accurately ripped (confidence 76) [8A8A177C] (AR v2)
Track 18 accurately ripped (confidence 77) [8D6F007E] (AR v2)
Track 19 accurately ripped (confidence 79) [3769EF0D] (AR v2)
Track 20 accurately ripped (confidence 80) [E3D6862E] (AR v2)
All tracks accurately ripped
End of status report
==== Log checksum 70D6F88FB4059F26B05C867C7AD1631CE0B857A9EB900FF2B95A323B8D60BCF8 ====

Содержание индексной карты (.CUE)

REM GENRE Rock
REM DATE 2010
REM DISCID 3110B614
REM COMMENT "ExactAudioCopy v1.3"
PERFORMER "Element of Crime"
TITLE "Fremde Federn"
REM COMPOSER ""
FILE "Element of Crime - Fremde Federn.flac" WAVE
TRACK 01 AUDIO
TITLE "Heimweh"
PERFORMER "Element of Crime"
REM COMPOSER ""
INDEX 01 00:00:00
TRACK 02 AUDIO
TITLE "My Bonnie Is Over The Ocean"
PERFORMER "Element of Crime"
REM COMPOSER ""
INDEX 01 04:27:12
TRACK 03 AUDIO
TITLE "It's All Over Now, Baby Blue"
PERFORMER "Element of Crime"
REM COMPOSER ""
INDEX 01 07:44:54
TRACK 04 AUDIO
TITLE "Spooky"
PERFORMER "Element of Crime"
REM COMPOSER ""
INDEX 01 12:34:47
TRACK 05 AUDIO
TITLE "Leider nur ein Vakuum"
PERFORMER "Element of Crime"
REM COMPOSER ""
INDEX 01 16:17:43
TRACK 06 AUDIO
TITLE "Auf der Espressomaschine"
PERFORMER "Element of Crime"
REM COMPOSER ""
INDEX 01 20:30:15
TRACK 07 AUDIO
TITLE "Motorcycle Song"
PERFORMER "Element of Crime"
REM COMPOSER ""
INDEX 00 23:36:02
INDEX 01 23:38:02
TRACK 08 AUDIO
TITLE "Hamburg 75"
PERFORMER "Element of Crime"
REM COMPOSER ""
INDEX 01 26:32:29
TRACK 09 AUDIO
TITLE "Blaumeise Yvonne"
PERFORMER "Element of Crime"
REM COMPOSER ""
INDEX 01 30:08:43
TRACK 10 AUDIO
TITLE "I Started a Joke"
PERFORMER "Element of Crime"
REM COMPOSER ""
INDEX 01 33:45:72
TRACK 11 AUDIO
TITLE "You Only Tell Me You Love Me When You're Drunk"
PERFORMER "Element of Crime"
REM COMPOSER ""
INDEX 01 37:38:24
TRACK 12 AUDIO
TITLE "Last Christmas"
PERFORMER "Element of Crime"
REM COMPOSER ""
INDEX 01 40:27:35
TRACK 13 AUDIO
TITLE "Ruf aus der Gruft [Instrumental]"
PERFORMER "Element of Crime"
REM COMPOSER ""
INDEX 01 43:51:26
TRACK 14 AUDIO
TITLE "Das Lied von der Unzulanglichkeit menschlichen Strebens"
PERFORMER "Element of Crime"
REM COMPOSER ""
INDEX 01 46:13:30
TRACK 15 AUDIO
TITLE "Zwei Gitarren"
PERFORMER "Element of Crime"
REM COMPOSER ""
INDEX 01 49:55:55
TRACK 16 AUDIO
TITLE "Akkordeon"
PERFORMER "Element of Crime"
REM COMPOSER ""
INDEX 01 52:54:30
TRACK 17 AUDIO
TITLE "Le Vent Nous Portera"
PERFORMER "Element of Crime"
REM COMPOSER ""
INDEX 01 56:52:45
TRACK 18 AUDIO
TITLE "She Brings The Rain"
PERFORMER "Element of Crime"
REM COMPOSER ""
INDEX 01 61:03:44
TRACK 19 AUDIO
TITLE "Leise rieselt der Schnee"
PERFORMER "Element of Crime"
REM COMPOSER ""
INDEX 01 63:46:09
TRACK 20 AUDIO
TITLE "Across The Universe"
PERFORMER "Element of Crime"
REM COMPOSER ""
INDEX 01 67:40:27
[cybertorrent.ru].t41985.torrent 
Торрент: Зарегистрирован [ 2018-03-19 19:00 ] · CE52E9B99511850FE072534E9227C5F1928B1C46

Скачать .torrent

Скачать

14 KB

Статус: проверено
Скачан: 0 раз
Размер: 652 MB
Профиль [ЛС]
Показать сообщения:    

Текущее время: 24-Апр 18:22

Часовой пояс: UTC ± 0



Вы не можете начинать темы
Вы не можете отвечать на сообщения
Вы не можете редактировать свои сообщения
Вы не можете удалять свои сообщения
Вы не можете голосовать в опросах
Вы не можете прикреплять файлы к сообщениям
Вы можете скачивать файлы