Статистика раздачи
Размер:  1,33 GB   |    Зарегистрирован:  1 месяц 4 дня   |    Скачан:  0 раз

Полного источника не было: Никогда

 
   
 
 

THT ®

Пол:
Не указан
Стаж:
2 месяца 7 дней
Сообщений:
744

Время счастья / Mutluluk Zamani
Страна: Турция
Жанр: мелодрама, комедия
Год выпуска: 2017
Продолжительность: 01:43:17
Перевод: Одноголосый закадровый Ирина Котова
Субтитры: нет
Оригинальная аудиодорожка: нет

Режиссер: Сенол Сонмез

В ролях: Барыш Ардуч, Эльчин Сангу, Дженгиз Бозкурт, Назли Кар, Седеф Авджи, Dila Bayrak, Yasmin Erbil, Левент Октем
Описание: Новая встреча с полюбившимися актерами Барышем Ардучем и Элчин Сангу из сериала "Любовь напрокат". Есть расхожее утверждение, что каждый из людей ищет для себя идеал, а потом уже влюбляется в него. Но так ли это на самом деле? История Мерта и Ады как раз доказывает обратное. Они абсолютно разные люди, их взгляды на жизнь отличаются друг от друга как небо и земля. Мерт предпочитает не вспоминать о своем прошлом и строит свою идеальную жизнь только в настоящем. Ада считает, что для успешного будущего необходимо учитывать ошибки, совершенные ранее. Кто из них прав? Герои весьма неожиданно для себя сталкиваются на небольшом Босфорском островке, и эта встреча становится началом их любви. Но для того, чтобы стать счастливыми, им обоим придется пройти через серьезные испытания. Но препятствия для того и нужны, чтобы люди могли проверить свои чувства. Жизни главных героев изменятся навсегда, это очевидно. Но в этой истории есть еще один, пусть и не центральный, но очень колоритный персонаж. Это Тарык, брат Ады. Молодой человек долгое время чувствовал себя в некоторой степени ущербным – он был настолько застенчив и робок, что не мог легко и непринужденно общаться с девушками. Мерт поможет стать ему более уверенным и успешным.

Сэмпл: http://multi-up.com/1191289
Качество видео: WEB-DLRip
Формат видео: AVI
Видео: 720x400 (1.80:1), 25 fps, XviD build 73 ~1644 kbps avg, 0.22 bit/pixel
Аудио: 44.100 kHz, MPEG Layer 3, 2 ch, ~192.00 kbps avg

MediaInfo

Формат : AVI
Формат/Информация : Audio Video Interleave
Размер файла : 1,33 Гбайт
Продолжительность : 1 ч. 43 м.
Общий поток : 1846 Кбит/сек
Видео
Идентификатор : 0
Формат : MPEG-4 Visual
Профиль формата : Advanced Simple@L5
Параметр BVOP формата : 2
Параметр QPel формата : Нет
Параметр GMC формата : Без точки перехода
Параметр матрицы формата : Default (H.263)
Режим смешивания : Сжатый битовый поток
Идентификатор кодека : XVID
Идентификатор кодека/Подсказка : XviD
Продолжительность : 1 ч. 43 м.
Битрейт : 1644 Кбит/сек
Ширина : 720 пикселей
Высота : 400 пикселей
Соотношение сторон : 16:9
Частота кадров : 25,000 кадров/сек
Цветовое пространство : YUV
Субдискретизация насыщенности : 4:2:0
Битовая глубина : 8 бит
Тип развёртки : Прогрессивная
Метод сжатия : С потерями
Бит/(Пиксели*Кадры) : 0.228
Размер потока : 1,19 Гбайт (89%)
Библиотека кодирования : XviD 73
Аудио
Идентификатор : 1
Формат : MPEG Audio
Версия формата : Version 1
Профиль формата : Layer 3
Режим : Joint stereo
Идентификатор кодека : 55
Идентификатор кодека/Подсказка : MP3
Продолжительность : 1 ч. 43 м.
Вид битрейта : Постоянный
Битрейт : 192 Кбит/сек
Каналы : 2 канала
Частота : 44,1 КГц
Метод сжатия : С потерями
Размер потока : 142 Мбайт (10%)
Выравнивание : Разделение по промежуткам
Продолжительность промежутка : 40 мс. (1,00 видеокадр)
Время предзагрузки промежутка : 500 мс.

Скриншоты

[cybertorrent.ru].t41998.torrent 
Торрент: Зарегистрирован [ 2018-03-19 19:00 ] · 3EDD1F1229EEB3621BD78051F5BD932ACC40A3AA

Скачать .torrent

Скачать

14 KB

Статус: проверено
Скачан: 0 раз
Размер: 1,33 GB
Профиль [ЛС]
Показать сообщения:    

Текущее время: 24-Апр 04:50

Часовой пояс: UTC ± 0



Вы не можете начинать темы
Вы не можете отвечать на сообщения
Вы не можете редактировать свои сообщения
Вы не можете удалять свои сообщения
Вы не можете голосовать в опросах
Вы не можете прикреплять файлы к сообщениям
Вы можете скачивать файлы