Статистика раздачи
Размер:  2,29 GB   |    Зарегистрирован:  3 месяца 6 дней   |    Скачан:  0 раз

Полного источника не было: Никогда

Личеров:  1  [  0 KB/s  ]  
 
   
 
 

lopster ®

Пол:
Не указан
Стаж:
3 месяца 6 дней
Сообщений:
612

Возвращение в "А"
Жанр: драма
Год выпуска: 2011
Продолжительность: 01:49:00
Режиссёр: Егор Кончаловский
В ролях: Сейдулла Молдаханов, Берик Айтжанов, Наталья Аринбасарова, Гульнара Дусматова, Иван Жидков, Гоша Куценко, Аша Матай, Карлыгаш Мухамеджанова, Денис Никифоров, Андрей Шибаршин
Описание: Молодая, креативная группа российских телевизионщиков и казахстанских кинематографов отправляется в рискованное путешествие из Алматы в Афганистан для съемок документального кино «По дорогам Александра Македонского». Их сопровождает человек, некогда воевавший на землях Афгана и потерявший ногу в ходе боевых действий — Марат Аюмов. Он хорошо владеет фарси, знаком с обычаями, традициями и афганскими «законами». Но никто не знает, что он служил в составе мусульманского батальона спецназа ГРУ СССР под командованием легенды афганской войны «Кара Майора» и что у него есть и свои личные причины вернуться в Афганистан…
Официальное представительство Казахстана в категории «Лучший иностранный фильм» 84-й премии Академии в 2012 году.
Качество видео: DVB
Формат видео: TS
Видео: AVC, 720x576 (16:9), 25.000 fps, 2 663 Kbps (0.257 bit/pixel)
Аудио: MP2, 48.0 KHz, 2 ch, 192 Kbps, CBR (std)

MediaInfo

General
ID : 16 (0x10)
Complete name : C:\Users\User\Downloads\Возвращение в _А_.ts
Format : MPEG-TS
File size : 2.29 GiB
Duration : 1h 49mn
Overall bit rate mode : Variable
Overall bit rate : 3 006 Kbps
Video
ID : 1101 (0x44D)
Menu ID : 1100 (0x44C)
Format : AVC
Format/Info : Advanced Video Codec
Format profile : Main@L3.0
Format settings, CABAC : Yes
Format settings, ReFrames : 4 frames
Format settings, GOP : M=4, N=28
Codec ID : 27
Duration : 1h 49mn
Bit rate : 2 663 Kbps
Width : 720 pixels
Height : 576 pixels
Display aspect ratio : 16:9
Frame rate : 25.000 fps
Standard : PAL
Color space : YUV
Chroma subsampling : 4:2:0
Bit depth : 8 bits
Scan type : Interlaced
Scan order : Top Field First
Bits/(Pixel*Frame) : 0.257
Stream size : 2.03 GiB (89%)
Color primaries : BT.601 PAL
Transfer characteristics : BT.470 System B, BT.470 System G
Matrix coefficients : BT.601
Audio
ID : 1102 (0x44E)
Menu ID : 1100 (0x44C)
Format : MPEG Audio
Format version : Version 1
Format profile : Layer 2
Codec ID : 4
Duration : 1h 49mn
Bit rate mode : Constant
Bit rate : 192 Kbps
Channel(s) : 2 channels
Sampling rate : 48.0 KHz
Compression mode : Lossy
Delay relative to video : 54ms
Stream size : 150 MiB (6%)
Language : std
Language, more info : Clean effects
Text #1
ID : 1104 (0x450)-100
Menu ID : 1100 (0x44C)
Format : Teletext
Text #2
ID : 1104 (0x450)-888
Menu ID : 1100 (0x44C)
Format : Teletext
Menu
ID : 1100 (0x44C)
Menu ID : 1100 (0x44C)
Duration : 1h 49mn
List : 1101 (0x44D) (AVC) / 1102 (0x44E) (MPEG Audio, std) / 1104 (0x450) ()
Language : / std

Скриншот c названием фильма

Скриншоты

[cybertorrent.ru].t420.torrent 
Торрент: Зарегистрирован [ 2018-02-15 15:48 ] · 40E1753DB601E189C4BB67461EEF4E951EE078DF

Скачать .torrent

Скачать

12 KB

Статус: проверено
Скачан: 0 раз
Размер: 2,29 GB
Профиль [ЛС]
Показать сообщения:    

Текущее время: 21-Май 18:56

Часовой пояс: UTC ± 0



Вы не можете начинать темы
Вы не можете отвечать на сообщения
Вы не можете редактировать свои сообщения
Вы не можете удалять свои сообщения
Вы не можете голосовать в опросах
Вы не можете прикреплять файлы к сообщениям
Вы можете скачивать файлы