Статистика раздачи
Размер:  1,46 GB   |    Зарегистрирован:  1 месяц 4 дня   |    Скачан:  0 раз

Полного источника не было: Никогда

 
   
 
 

Dominion ®

Пол:
Мужской
Стаж:
2 месяца 5 дней
Сообщений:
556

Невидимая женщина / The Invisible Woman
Страна: Великобритания
Жанр: драма, мелодрама
Год выпуска: 2013
Продолжительность: 01:51:26
Перевод: Профессиональный (многоголосый закадровый) iTunes
Субтитры: нет
Режиссер: Рэйф Файнс / Ralph Fiennes
В ролях: Рэйф Файнс, Фелисити Джонс, Кристин Скотт Томас, Том Холландер, Джон Кэвэна, Том Эттвуд, Сузанна Хислоп, Том Бёрк, Томми Кёрсон-Смит
Описание: Как гласят свидетели, Чарльз Диккенс еще при жизни обрел свою популярность. Писателя и публициста публика викторианской Англии моментально возвела в литературные идолы. Сэры и дамы пачками приобретали издания, в которых по частям печатались творения писателя. На встречах с автором никогда не было свободных мест, люди спешили прийти и послушать о приключениях Оливера Твиста из первоисточника. Публицист так полюбился горожанам, что многие начали считать, что автор знает все о нюансах жизни. Но Чарльз Диккенс вел отнюдь не примерную жизнь. Спустя много лет брака, любимая жена, которая родила ему несколько детей, надоела. Душа писателя жаждала приключений, страсти, переживаний. Поиск вдохновения привел автора в объятия новой любви. Он познакомился с актрисой Эллен Тернан, роман с которой продлился 13 лет. Ее появление в жизни Диккенса оставило настолько сильный отпечаток, что писатель не только бросил ради нее семью, но и завещал ей все, что у него было....

Сэмпл: http://multi-up.com/1191291
Качество видео: HDRip (Исходник The.Invisible.Woman.2013.x264.P.BDRip.(1080p).NovaLan.mkv)
Формат видео: AVI
Видео: XviD 73, 720x304, (2,35:1), 23,976 fps, 1487 Кбит/с, 8 бит, 0.28 bit/pixel
Аудио: Русский (АС3, 6 ch (Front: L C R, Side: L R, LFE), 48,0 KHz, 348 Kbps)

MediaInfo

Общее
Полное имя : H:\Фильмы на трекер\Невидимая женщина (драма, мелодрама 2013 год).avi
Формат : AVI
Формат/Информация : Audio Video Interleave
Размер файла : 1,46 Гбайт
Продолжительность : 1 ч. 51 м.
Общий поток : 1880 Кбит/сек
Программа кодирования : VirtualDubMod 1.5.10.2 (build 2540/release)
Библиотека кодирования : VirtualDubMod build 2540/release
Видео
Идентификатор : 0
Формат : MPEG-4 Visual
Профиль формата : Advanced Simple@L5
Параметр BVOP формата : 2
Параметр QPel формата : Нет
Параметр GMC формата : Без точки перехода
Параметр матрицы формата : Выборочная
Идентификатор кодека : XVID
Идентификатор кодека/Подсказка : XviD
Продолжительность : 1 ч. 51 м.
Битрейт : 1487 Кбит/сек
Ширина : 720 пикселей
Высота : 304 пикселя
Соотношение сторон : 2,35:1
Частота кадров : 23,976 (23976/1000) кадра/сек
Цветовое пространство : YUV
Субдискретизация насыщенности : 4:2:0
Битовая глубина : 8 бит
Тип развёртки : Прогрессивная
Метод сжатия : С потерями
Бит/(Пиксели*Кадры) : 0.283
Размер потока : 1,16 Гбайт (79%)
Библиотека кодирования : XviD 73
Аудио
Идентификатор : 1
Формат : AC-3
Формат/Информация : Audio Coding 3
Расширение режима : CM (complete main)
Параметр Endianness формата : Big
Идентификатор кодека : 2000
Продолжительность : 1 ч. 51 м.
Вид битрейта : Постоянный
Битрейт : 384 Кбит/сек
Каналы : 6 каналов
Расположение каналов : Front: L C R, Side: L R, LFE
Частота : 48,0 КГц
Частота кадров : 31,250 кадров/сек (1536 spf)
Метод сжатия : С потерями
Размер потока : 306 Мбайт (20%)
Выравнивание : Разделение по промежуткам
Продолжительность промежутка : 42 мс. (1,00 видеокадр)
Время предзагрузки промежутка : 500 мс.

Скриншот c названием фильма

Скриншоты

[cybertorrent.ru].t42001.torrent 
Торрент: Зарегистрирован [ 2018-03-19 19:00 ] · 98F3AA606B2E733F744C6938208F123DE31062F6

Скачать .torrent

Скачать

15 KB

Статус: проверено
Скачан: 0 раз
Размер: 1,46 GB
Профиль [ЛС]
Показать сообщения:    

Текущее время: 24-Апр 04:49

Часовой пояс: UTC ± 0



Вы не можете начинать темы
Вы не можете отвечать на сообщения
Вы не можете редактировать свои сообщения
Вы не можете удалять свои сообщения
Вы не можете голосовать в опросах
Вы не можете прикреплять файлы к сообщениям
Вы можете скачивать файлы