Статистика раздачи
Размер:  1,46 GB   |    Зарегистрирован:  1 месяц 6 дней   |    Скачан:  0 раз

Полного источника не было: Никогда

 
   
 
 

Симка ®

Пол:
Не указан
Стаж:
2 месяца 10 дней
Сообщений:
264

Солнце рабочих окраин / Sunshine in the Old Neighborhood / Shitamachi no taiyo / 下町の太陽
Страна: Япония
Жанр: драма
Год выпуска: 1963
Продолжительность: 01:26:18
Перевод: Субтитры русские - дед_сто_лет©
Оригинальная аудиодорожка: японский
Режиссер: Ёдзи Ямада / Yoji Yamada
В ролях: Тиэко БАЙСЁ, Хомарэ СУГУРО, Тамоцу ХАЯКАВА, Кёскэ МАТИДА, Мити АОЯМА, Сусуму ИСИКАВА, Кёко АОИ, Кэйко МИДЗУСИНА, Сатоко ЯМАДЗАКИ, Синдзи ТАНАКА, Каматари ФУДЗИВАРА, Эйдзиро ТОНО, Ёси КАТО, Бокудзэн ХИДАРИ, Кин СУГАИ, Тоёко ТАКЭТИ, Коскэ НОНЭ, Дзёдзи ЯНАГИСАВА, Таканобу ХОДЗУМИ, Исао ТАМАГАВА, Акира НАГОЯ, Харуо СУДЗУКИ, Сомэсё МАЦУМОТО, Коэй ЯМАМОТО, Масахико ИНОУЭ, Кодзи НАКА, Крэйзи ВЕСТ
Описание: Матико Тэрадзима выросла без матери. Она не только ухаживает за бабушкой и отцом, но и воспитывает младшего брата. С детства её окружают заводы и фабрики, простые люди, спешащие на работу. Если выйти замуж за перспективного парня, можно покинуть эти задымленные окраины и переселиться в современный жилой комплекс. Но сделает ли это её счастливее?©
> > > > >
Качество видео: DVDRip
Формат видео: AVI
Видео: 720x320 (2.25:1), 23.976 fps, XviD build 50 ~2214 kbps avg, 0.40 bit/pixel
Аудио: 48 kHz, MPEG Layer 3, 2 ch, ~192.00 kbps avg

Пример субтитров

370
00:25:13,879 --> 00:25:15,859
Мы не бандиты.
371
00:25:17,816 --> 00:25:20,888
Здесь написано Саэмон Судзуки.
Какое странное имя!
372
00:25:27,226 --> 00:25:30,139
Значит, это они научили
его всяким безобразиям?
373
00:25:30,596 --> 00:25:32,700
Я всыплю ему, когда приду вечером домой.
374
00:25:32,701 --> 00:25:35,702
Думаю, если ругать, будет только хуже.
375
00:25:35,734 --> 00:25:38,681
Как это неприятно.
Матико, что же нам делать?
376
00:25:38,737 --> 00:25:39,807
Осторожно!
377
00:25:43,876 --> 00:25:47,255
Мне надо встретиться и поговорить с ним.
378
00:25:47,279 --> 00:25:48,719
- С тем работягой?
- Да.
379
00:25:48,847 --> 00:25:50,053
Ну, не знаю...
380
00:25:55,154 --> 00:25:56,895
Что же делать?
381
00:25:58,157 --> 00:26:00,694
Я не так хорошо знаком с твоим братом.
382
00:26:00,726 --> 00:26:01,726
Но...
383
00:26:05,297 --> 00:26:09,507
Тот парень знает его лучше.
Я позову его.
384
00:26:38,430 --> 00:26:41,434
В чем дело?
Почему я не должен с ним общаться?
385
00:26:41,834 --> 00:26:43,673
Я не учил его ничему плохому.
386
00:26:43,674 --> 00:26:44,875
От тебя одни неприятности.
387
00:26:45,604 --> 00:26:48,517
Мой брат сбился с пути.
388
00:26:48,540 --> 00:26:51,043
Вовсе нет. Он хороший парень.
389
00:26:51,110 --> 00:26:55,684
Это не так. Он расстроен и ходит мрачный.
390
00:26:55,714 --> 00:26:58,957
Никакой он не мрачный.
Он задорный и веселый.

MediaInfo

General
Complete name : C:\...\Shitamachi-no.taiyo(1963)Yoji.Yamada\Shitamachi-no.taiyo(1963)Yoji.Yamada.avi
Format : AVI
Format/Info : Audio Video Interleave
File size : 1.46 GiB
Duration : 1h 26mn
Overall bit rate : 2 416 Kbps
Writing application : VirtualDubMod 1.5.4.1 (build 2178/release)
Writing library : VirtualDub-MPEG2 build 24600/release
Video
ID : 0
Format : MPEG-4 Visual
Format profile : Advanced Simple@L5
Format settings, BVOP : No
Format settings, QPel : No
Format settings, GMC : No warppoints
Format settings, Matrix : Custom
Codec ID : XVID
Codec ID/Hint : XviD
Duration : 1h 26mn
Bit rate : 2 215 Kbps
Width : 720 pixels
Height : 320 pixels
Display aspect ratio : 2.25:1
Frame rate : 23.976 fps
Color space : YUV
Chroma subsampling : 4:2:0
Bit depth : 8 bits
Scan type : Progressive
Compression mode : Lossy
Bits/(Pixel*Frame) : 0.401
Stream size : 1.34 GiB (92%)
Writing library : XviD 1.2.1 (UTC 2008-12-04)
Audio
ID : 1
Format : MPEG Audio
Format version : Version 1
Format profile : Layer 3
Mode : Joint stereo
Mode extension : MS Stereo
Codec ID : 55
Codec ID/Hint : MP3
Duration : 1h 26mn
Bit rate mode : Constant
Bit rate : 192 Kbps
Channel(s) : 2 channels
Sampling rate : 48.0 KHz
Compression mode : Lossy
Stream size : 119 MiB (8%)
Alignment : Aligned on interleaves
Interleave, duration : 42 ms (1.00 video frame)
Interleave, preload duration : 504 ms
Writing library : LAME3.98r
Encoding settings : -m j -V 4 -q 2 -lowpass 18.6 -b 192

Скриншот c названием фильма

Скриншоты

[cybertorrent.ru].t42002.torrent 
Торрент: Зарегистрирован [ 2018-03-19 19:00 ] · F50F211EB4E48088426231CBCCD3348A6AAEFA2D

Скачать .torrent

Скачать

15 KB

Статус: проверено
Скачан: 0 раз
Размер: 1,46 GB
Профиль [ЛС]
Показать сообщения:    

Текущее время: 25-Апр 21:58

Часовой пояс: UTC ± 0



Вы не можете начинать темы
Вы не можете отвечать на сообщения
Вы не можете редактировать свои сообщения
Вы не можете удалять свои сообщения
Вы не можете голосовать в опросах
Вы не можете прикреплять файлы к сообщениям
Вы можете скачивать файлы