Статистика раздачи
Размер:  240 MB   |    Зарегистрирован:  1 месяц 4 дня   |    Скачан:  0 раз

Полного источника не было: Никогда

 
   
 
 

dash ®

Пол:
Не указан
Стаж:
2 месяца 6 дней
Сообщений:
121

Gaede Trio - Beethoven, Eisler, Ysaye Жанр: Classical
Страна-производитель диска: Germany
Год издания диска: 1999
Издатель (лейбл): TACET
Номер по каталогу: 97
Аудиокодек: FLAC
Тип рипа: image+.cue
Битрейт аудио: lossless
Источник: собственный рип
Наличие сканов в содержимом раздачи: нет
Треклист:
Ludwig van Beethoven (1770-1827)
01. Serenade D-Dur op.8, I. Marcia. Allegro (2:12)
02. II. Adagio (8:15)
03. III. Menuetto. Allegretto (2:41)
04. IV. Adagio - Scherzo. Allegro molto (5:00)
05. V. Allegretto alla Polacca (3:29)
06. VI. Thema con Variazioni. Andante quasi Allegretto (8:26)
07. VII. Marcia. Allegro (2:18)
Hanns Eisler (1898-1962)
08. Scherzo fur Streichtrio (1920) - Massig bewegt (4:26)
Hanns Eisler (1898-1962)
09. Praludium und Fuge uber B-A-C-H fur Streichtrio op.46 (1934) - Andante con moto - Allegretto (ma non troppo) (5:01)
Eugene Ysaye (1858-1931)
10. Trio a cordes Le Chimay op.posth. (1927) (19:36)
Исполнители:
Gaede Trio

Лог создания рипа

CUERipper v2.1.6 Copyright (C) 2008-13 Grigory Chudov
EAC extraction logfile from 2. November 2017, 20:37
Gaede Trio / Beethoven, Eisler, Ysaye
Used drive : HL-DT-ST BD-RE BH16NS40 Adapter: 1 ID: 0
Read mode : Secure
Utilize accurate stream : Yes
Defeat audio cache : Yes
Make use of C2 pointers : No
Read offset correction : 6
Overread into Lead-In and Lead-Out : No
Fill up missing offset samples with silence : Yes
Delete leading and trailing silent blocks : No
Null samples used in CRC calculations : Yes
Used interface : Native Win32 interface for Win NT & 2000
Used output format : Internal WAV Routines
Sample format : 44.100 Hz; 16 Bit; Stereo
TOC of the extracted CD
Track | Start | Length | Start sector | End sector
---------------------------------------------------------
1 | 0:00.00 | 2:11.58 | 0 | 9882
2 | 2:11.58 | 8:15.17 | 9883 | 47024
3 | 10:27.00 | 2:40.50 | 47025 | 59074
4 | 13:07.50 | 4:59.50 | 59075 | 81549
5 | 18:07.25 | 3:29.25 | 81550 | 97249
6 | 21:36.50 | 8:25.50 | 97250 | 135174
7 | 30:02.25 | 2:18.23 | 135175 | 145547
8 | 32:20.48 | 4:26.25 | 145548 | 165522
9 | 36:46.73 | 5:00.73 | 165523 | 188095
10 | 41:47.71 | 19:36.04 | 188096 | 276299
Range status and errors
Selected range
Filename I:\Tmpo\Gaede Trio\1999 - Beethoven, Eisler, Ysaye\Gaede Trio - Beethoven, Eisler, Ysaye.wav
Peak level 94.8 %
Range quality 100.0 %
Copy CRC 8E1A12C6
Copy OK
No errors occurred
AccurateRip summary
Track 1 accurately ripped (confidence 8) [2F0C9897]
Track 2 accurately ripped (confidence 8) [7C6C0872]
Track 3 accurately ripped (confidence 8) [D29478FC]
Track 4 accurately ripped (confidence 8) [31D857A9]
Track 5 accurately ripped (confidence 8) [6E4211CD]
Track 6 accurately ripped (confidence 8) [BC3B0A87]
Track 7 accurately ripped (confidence 8) [F577CCD8]
Track 8 accurately ripped (confidence 8) [AC6A4C44]
Track 9 accurately ripped (confidence 8) [ADADC1B4]
Track 10 accurately ripped (confidence 8) [E728AA63]
All tracks accurately ripped
End of status report

Содержание индексной карты (.CUE)

REM GENRE Classical
REM DATE 1999
REM DISCID 910E640A
REM COMMENT CUERipper v2.1.6 Copyright (C) 2008-13 Grigory Chudov
CATALOG 4009850009702
PERFORMER "Gaede Trio"
TITLE "Beethoven, Eisler, Ysaye"
FILE "Gaede Trio - Beethoven, Eisler, Ysaye.flac" WAVE
TRACK 01 AUDIO
TITLE "Serenade D-Dur op.8, I. Marcia. Allegro"
ISRC DEC219901801
INDEX 01 00:00:00
TRACK 02 AUDIO
TITLE "Serenade D-Dur op.8, II. Adagio"
ISRC DEC219901802
INDEX 01 02:11:58
TRACK 03 AUDIO
TITLE "Serenade D-Dur op.8, III. Menuetto. Allegretto"
ISRC DEC219901803
INDEX 01 10:27:00
TRACK 04 AUDIO
TITLE "Serenade D-Dur op.8, IV. Adagio - Scherzo. Allegro molto"
ISRC DEC219901804
INDEX 01 13:07:50
TRACK 05 AUDIO
TITLE "Serenade D-Dur op.8, V. Allegretto alla Polacca"
ISRC DEC219901805
INDEX 01 18:07:25
TRACK 06 AUDIO
TITLE "Serenade D-Dur op.8, VI. Thema con Variazioni. Andante quasi Allegretto"
ISRC DEC219901806
INDEX 01 21:36:50
TRACK 07 AUDIO
TITLE "Serenade D-Dur op.8, VII. Marcia. Allegro"
ISRC DEC219901807
INDEX 01 30:02:25
TRACK 08 AUDIO
TITLE "Scherzo fur Streichtrio (1920) - Massig bewegt"
ISRC DEC219901808
INDEX 00 32:14:23
INDEX 01 32:20:48
TRACK 09 AUDIO
TITLE "Praludium und Fuge uber B-A-C-H fur Streichtrio op.46 (1934) - Andante con moto - Allegretto (ma non troppo)"
ISRC DEC219901809
INDEX 00 36:43:37
INDEX 01 36:46:73
TRACK 10 AUDIO
TITLE "Trio a cordes Le Chimay op.posth. (1927)"
ISRC DEC219901810
INDEX 00 41:42:73
INDEX 01 41:47:71

Лог проверки качества

-----------------------
DON'T MODIFY THIS FILE
-----------------------
PERFORMER: auCDtect Task Manager, ver. 1.5.1RC6 build 1.5.1.7
Copyright (c) 2008-2010 y-soft. All rights reserved
http://y-soft.org
ANALYZER: auCDtect: CD records authenticity detector, version 0.8.2
Copyright (c) 2004 Oleg Berngardt. All rights reserved.
Copyright (c) 2004 Alexander Djourik. All rights reserved.
FILE: Gaede Trio - Beethoven, Eisler, Ysaye.flac
Size: 251987902 Hash: 5A9A46E3CBAABFF558198A48ED103755 Accuracy: -m0
Conclusion: CDDA 100%
Signature: DC1303E6CF2EF21AE9E4AA3738AB92410752317B
Доп. информация: Об издании
[cybertorrent.ru].t42004.torrent 
Торрент: Зарегистрирован [ 2018-03-19 19:00 ] · 39B9B83F7CE346367388B5971884DD864F340F6A

Скачать .torrent

Скачать

20 KB

Статус: проверено
Скачан: 0 раз
Размер: 240 MB
Профиль [ЛС]
Показать сообщения:    

Текущее время: 24-Апр 18:20

Часовой пояс: UTC ± 0



Вы не можете начинать темы
Вы не можете отвечать на сообщения
Вы не можете редактировать свои сообщения
Вы не можете удалять свои сообщения
Вы не можете голосовать в опросах
Вы не можете прикреплять файлы к сообщениям
Вы можете скачивать файлы