Статистика раздачи
Размер:  4,98 GB   |    Зарегистрирован:  1 месяц 2 дня   |    Скачан:  0 раз

Полного источника не было: Никогда

 
   
 
 

koljan ®

Пол:
Не указан
Стаж:
2 месяца 7 дней
Сообщений:
472

Фиксики / Fixiki
Страна: Россия
Жанр: Семейный
Продолжительность серии: 00:06:00
Год выпуска: 2010 - 2018
Русские субтитры: нет
Режиссёр: Васико Бедошвили, Андрей Колпин, Владимир Пономарёв, Сергей Меринов.
Роли озвучивали: Лариса Брохман, Яков Васильев, Андрей Кононов, Андрей Клубань, Феликс Головнин, Инна Королёва, Юрий Мазихин, Пётр Иващенко, Дмитрий Назаров, Дмитрий Бужинский, Алексей Россошанский, Иван Добряков, Варвара Обидор, Диомид Виноградов, Александр Новиков, Артём Скосарев
Описание: Российский анимационный мультсериал. Создан по мотивам повести Эдуарда Успенского «Гарантийные человечки». С 13 декабря 2010 года выходит в телепередаче «Спокойной ночи, малыши!» на канале «Россия-1». Также выходит на телеканалах «Карусель» и «Детский». С июля по декабрь 2014 года транслировался на телеканале «Культура». С июня 2014 года транслируется на телеканале «Мульт». Летом 2016 транслировался на телеканале «Тлум HD». С 8 февраля 2017 года транслируется на канале О!
Доп. информация: Все серии выгружены с официального YouTube канала Фиксиков. Концовки, предлагающие посмотреть другие серии, обрезаны. Эпизоды пронумерованы согласно базе The Movie DB. Сделано для совместимости с Plex Media Server.
Качество: WEB-DL 720p
Формат: MP4
Видео: avc1, 1280x720, 16:9, 25.000 fps, 988 Kbps
Аудио: Advanced Audio Codec, 44.1 KHz, 2 ch, 126 Kbps

Список серий

Первый сезон:
1 Компакт-диск
2 Пульт
3 Пылесос
4 Будильник
5 Сифон
6 Холодильник
7 Кодовый замок
8 Эсэмэски
9 Воздушный шар
10 Электрочайник
11 Зубная щётка
12 Микроволновка
13 Винтики
14 Железная дорога
15 Деталька
16 Степлер
17 Аквариум
18 Клавиатура
19 Шариковая ручка
20 Сотовый телефон
21 Фонарик
22 Стиральная машина
23 Робот
24 Термометр
25 Магнит
26 Музыкальная шкатулка
27 Гирлянда
28 Короткое замыкание
29 Фен
30 Вентилятор
31 Компас
32 Солнечная батарея
33 Кораблик
34 Взбитые сливки
35 Рычаг
36 Волшебная палочка
37 Ночник
38 Застёжка-молния
39 Мультик
40 Миксер
41 Лупа
42 Бумага
43 Термос
44 Сигнализация
45 Весы
46 Копилка
47 Консервная банка
48 Интернет
49 Детектор лжи
50 Карамель
51 Микрофон
52 Зеркало
Второй сезон:
53 Команда
54 Кубик Нолика
55 Катапульта
56 Пятно
57 Вентиляция
58 Сила трения
59 Дверной звонок
60 Помогатор
61 Лом
62 Маскировка
63 Уровень
64 Пластилин
65 Цепная реакция
66 Говорящая кукла
67 Штрих-код
68 Глобус
69 Протез
70 Фотоаппарат
71 Барабан
72 Калейдоскоп
73 Трубы
74 Провода
75 Навигатор
76 Доспехи
77 Огнетушитель
78 Часы
79 Манипулятор
80 Видеосвязь
81 Рефлексы
82 Духовка
83 Собака
84 Граммофон
85 Ключ-карта
86 Пчела
87 Экотестер
88 Подушка безопасности
89 Батарейки
90 Инструкция
91 Шахматы
92 Лаборатория
93 Театр теней
94 Антенна
95 Инструменты
96 Узлы
97 Радионяня
98 Чертёж
99 Фиксифон
100 Лифт
101 Цыпленок
102 Датчик
103 Невидимые чернила
104 Присоска
Третий сезон:
105 Аэрозоль
106 Кино
107 Ноты
108 Конструктор
109 Красота
110 Копия
111 Попугай
112 Телевизор
113 Программа
114 Унитаз
115 Колесо
116 Микробы
117 Сито
118 Тренажёр
119 Зонтик
120 Утюг
121 Витамины
122 Шоколад
123 Подводная лодка
124 Паучок
125 Деньги
126 Кормушка
127 Рюкзак
128 Посудомоечная машина
129 Машина времени
130 Зубная паста
131 Вертолёт
132 Кофеварка
133 Вирус
134 Крепёж
135 Сковородка
136 Окно

Подробные технические данные

General
Complete name : S03E01.Aerozol.mp4
Format : MPEG-4
Format profile : Base Media / Version 2
Codec ID : mp42 (isom/mp42)
File size : 48.4 MiB
Duration : 6mn 3s
Overall bit rate mode : Variable
Overall bit rate : 1 118 Kbps
Encoded date : UTC 2016-08-24 14:22:02
Tagged date : UTC 2016-08-24 14:22:02
gsst : 0
gstd : 363415
Video
ID : 1
Format : AVC
Format/Info : Advanced Video Codec
Format profile : Main@L3.1
Format settings, CABAC : Yes
Format settings, ReFrames : 3 frames
Codec ID : avc1
Codec ID/Info : Advanced Video Coding
Duration : 6mn 3s
Bit rate : 988 Kbps
Width : 1 280 pixels
Height : 720 pixels
Display aspect ratio : 16:9
Frame rate mode : Constant
Frame rate : 25.000 fps
Color space : YUV
Chroma subsampling : 4:2:0
Bit depth : 8 bits
Scan type : Progressive
Bits/(Pixel*Frame) : 0.043
Stream size : 42.8 MiB (88%)
Title : ISO Media file produced by Google Inc.
Encoded date : UTC 2016-08-24 14:22:02
Tagged date : UTC 2016-08-24 14:22:02
Audio
ID : 2
Format : AAC
Format/Info : Advanced Audio Codec
Format profile : LC
Codec ID : 40
Duration : 6mn 3s
Bit rate mode : Variable
Bit rate : 126 Kbps
Channel(s) : 2 channels
Channel positions : Front: L R
Sampling rate : 44.1 KHz
Frame rate : 43.066 fps (1024 spf)
Compression mode : Lossy
Stream size : 5.44 MiB (11%)
Title : ISO Media file produced by Google Inc.
Encoded date : UTC 2016-08-24 14:22:02
Tagged date : UTC 2016-08-24 14:22:02

Скриншоты



Предыдущие и альтернативные раздачи
[cybertorrent.ru].t42008.torrent 
Торрент: Зарегистрирован [ 2018-03-19 19:00 ] · CB3616338D83264159B0B3CC12FEAB76F4963FBF

Скачать .torrent

Скачать

58 KB

Статус: проверено
Скачан: 0 раз
Размер: 4,98 GB
Профиль [ЛС]
Показать сообщения:    

Текущее время: 22-Апр 14:36

Часовой пояс: UTC ± 0



Вы не можете начинать темы
Вы не можете отвечать на сообщения
Вы не можете редактировать свои сообщения
Вы не можете удалять свои сообщения
Вы не можете голосовать в опросах
Вы не можете прикреплять файлы к сообщениям
Вы можете скачивать файлы