Статистика раздачи
Размер:  2,52 GB   |    Зарегистрирован:  1 месяц 2 дня   |    Скачан:  0 раз

Полного источника не было: Никогда

 
   
 
 

Awrora ®

Пол:
Не указан
Стаж:
2 месяца 7 дней
Сообщений:
624

Кубок Мира 2017-18. 8-й этап. Осло-Хольменколлен (Норвегия)
Женщины. Гонка преследования 10 км
Вид спорта: Биатлон
Комментарий: Профессиональный
Язык комментариев: Русский / Интершум-Описание: Кубок Мира 2017-18. 8-й этап. Осло-Хольменколлен (Норвегия). Женщины. Гонка преследования 10 км.-Автор рипа: Настольный теннисист
Качество: HDTV
Формат: TS
Видео кодек: AVC
Аудио кодек: MP2
Видео: MPEG4 Video (H264) 1920x1080 (16:9) 25fps 8632kbps
Аудио 1-2: MPEG Audio 48000Hz stereo 192kbps

Скриншоты

Продолжительность

00:38:05

MediaInfo

General
ID : 1 (0x1)
Complete name : Y:\раздачи\Осло. Ж преследование. Злобный.ts
Format : MPEG-TS
File size : 2.52 GiB
Duration : 38 min 5 s
Overall bit rate mode : Variable
Overall bit rate : 9 489 kb/s
Video
ID : 204 (0xCC)
Menu ID : 2204 (0x89C)
Format : AVC
Format/Info : Advanced Video Codec
Format profile : High@L4
Format settings, CABAC : Yes
Format settings, RefFrames : 4 frames
Codec ID : 27
Duration : 38 min 5 s
Bit rate : 8 632 kb/s
Width : 1 920 pixels
Height : 1 080 pixels
Display aspect ratio : 16:9
Frame rate : 25.000 FPS
Standard : Component
Color space : YUV
Chroma subsampling : 4:2:0
Bit depth : 8 bits
Scan type : Interlaced
Scan type, store method : Separated fields
Scan order : Top Field First
Bits/(Pixel*Frame) : 0.167
Stream size : 2.30 GiB (91%)
Color range : Limited
Color primaries : BT.709
Transfer characteristics : BT.709
Matrix coefficients : BT.709
Audio #1
ID : 304 (0x130)
Menu ID : 2204 (0x89C)
Format : MPEG Audio
Format version : Version 1
Format profile : Layer 2
Codec ID : 3
Duration : 38 min 5 s
Bit rate mode : Constant
Bit rate : 192 kb/s
Channel(s) : 2 channels
Sampling rate : 48.0 kHz
Compression mode : Lossy
Stream size : 52.3 MiB (2%)
Language : Russian
Audio #2
ID : 305 (0x131)
Menu ID : 2204 (0x89C)
Format : MPEG Audio
Format version : Version 1
Format profile : Layer 2
Codec ID : 3
Duration : 38 min 5 s
Bit rate mode : Constant
Bit rate : 192 kb/s
Channel(s) : 2 channels
Sampling rate : 48.0 kHz
Compression mode : Lossy
Stream size : 52.3 MiB (2%)
[cybertorrent.ru].t42012.torrent 
Торрент: Зарегистрирован [ 2018-03-19 19:00 ] · E8D38E60D8155A78F824E3BAFE2F1861883BD219

Скачать .torrent

Скачать

13 KB

Статус: проверено
Скачан: 0 раз
Размер: 2,52 GB
Профиль [ЛС]
Показать сообщения:    

Текущее время: 22-Апр 16:09

Часовой пояс: UTC ± 0



Вы не можете начинать темы
Вы не можете отвечать на сообщения
Вы не можете редактировать свои сообщения
Вы не можете удалять свои сообщения
Вы не можете голосовать в опросах
Вы не можете прикреплять файлы к сообщениям
Вы можете скачивать файлы