Статистика раздачи
Размер:  7,22 GB   |    Зарегистрирован:  2 месяца 3 дня   |    Скачан:  0 раз

Полного источника не было: Никогда

 
   
 
 

Angel ®

Пол:
Не указан
Стаж:
3 месяца 7 дней
Сообщений:
290

Сделано в Америке / American Made«Он обладал талантом делать деньги из воздуха»- Страна: США
Студии: Universal Pictures, Cross Creek Pictures, Imagine Entertainment, Hercules Film Fund
Жанр: Боевик, триллер, драма, комедия, криминал, биография, история
Год выпуска: 2017-Дата мировой премьеры: 18 августа 2017
Дата российской премьеры: 12 октября 2017, «UPI»-Продолжительность: 01:50:16
Перевод: Профессиональный (дублированный) [Лицензия]
Субтитры: Английские, испанские, португальские, русские, эстонские, латышские, болгарские
Оригинальная аудиодорожка: английская-Режиссер: Даг Лайман / Doug Liman
Продюсеры: Джилл Аренс, Райан Аренс, Брандт Андерсен
Актеры: Том Круз, Донал Глисон, Сара Райт, Джесси Племонс, Калеб Лэндри Джонс, Лола Кёрк, Джейма Мейс, Алехандро Эдда, Бенито Мартинес, Э. Роджер Митчелл-Описание:
Он был самым юным пилотом Боинга 747 в США, а уже через несколько лет стал одним из богатейших людей в Америке. Его стиль жизни был столь же экстремальным, как и его бизнес. Закрытые приемы, роскошные блондинки, крутые тачки и рисковые сделки. Он обладал талантом делать деньги из воздуха.
Доп. материалы: Удалённые эпизоды, Американские рассказчики, Беседа Тома Круза и Дага Лаймана, Во всеоружии, Съемки "Сделано в Америке", Высокий полёт,
Настоящий Барри Сил- -Качество: DVD9 R2
Формат: DVD-Video
Видео: MPEG-2, 720x576@1024x576 (PAL 16:9), ~5900 Кбит/сек
Аудио 1: AC3 5.1, 384 Кбит/сек [Английский - оригинал]
Аудио 2: AC3 5.1, 384 Кбит/сек [Испанский - дублированный]
Аудио 3: AC3 5.1, 384 Кбит/сек [Русский - дублированный]

DVDInfo

Title: American Made (2017) DVD9 R2
Size: 7.22 Gb ( 7 571 808 KBytes ) - DVD-9
Enabled regions: 1, 2, 3, 4, 5, 6, 7, 8
VTS_01 :
Play Length: 00:00:25
Video: PAL 16:9 (720x576) VBR, Auto Pan&Scan
Audio:
English (Dolby AC3, 6 ch)
VTS_02 :
Play Length: 00:04:00
Video: PAL 16:9 (720x576) VBR, Auto Letterboxed
VTS_03 :
Play Length: 00:04:39+00:05:37
Video: PAL 16:9 (720x576) VBR, Auto Pan&Scan
Audio:
English (Dolby AC3, 2 ch)
Subtitles:
English
Espanol
Portugues
Russian
VTS_04 :
Play Length:
Video: PAL 16:9 (720x576) VBR, Auto Pan&Scan
VTS_05 :
Play Length: 00:09:38+00:01:21+00:01:11+00:01:17+00:03:10+00:00:37+00:02:06+00:00:06
Video: PAL 16:9 (720x576) VBR, Auto Pan&Scan
Audio:
English (Dolby AC3, 2 ch)
English (Dolby AC3, 2 ch)
Subtitles:
English
Espanol
Portugues
Russian
English
Espanol
VTS_06 :
Play Length: 00:02:08
Video: PAL 16:9 (720x576) VBR, Auto Pan&Scan
Audio:
English (Dolby AC3, 6 ch)
Subtitles:
English
Espanol
Portugues
Russian
VTS_07 :
Play Length: 01:50:16
Video: PAL 16:9 (720x576) VBR, Auto Pan&Scan
Audio:
English (Dolby AC3, 6 ch)
Espanol (Dolby AC3, 6 ch)
Russian (Dolby AC3, 6 ch)
Subtitles:
English
Espanol
Portugues
Russian
Estonian
Latvian
Bulgarian
English
Espanol
Russian
VTS_08 :
Play Length: 00:01:01+00:02:20+00:01:05
Video: PAL 16:9 (720x576) VBR, Auto Pan&Scan
Audio:
English (Dolby AC3, 2 ch)
Subtitles:
English
Espanol
Portugues
Russian
VTS_09 :
Play Length:
Video: PAL 16:9 (720x576) VBR, Auto Pan&Scan
VTS_10 :
Play Length: 00:06:23+00:05:12+00:05:47+00:04:06
Video: PAL 16:9 (720x576) VBR, Auto Pan&Scan
Audio:
English (Dolby AC3, 2 ch)
Subtitles:
English
Espanol
Portugues
Russian
VTS_11 :
Play Length:
Video: PAL 16:9 (720x576) VBR, Auto Pan&Scan
VTS_12 :
Play Length:
Video: PAL 16:9 (720x576) VBR, Auto Pan&Scan
VTS_13 :
Play Length:
Video: PAL 16:9 (720x576) VBR, Auto Pan&Scan
VTS_14 :
Play Length:
Video: PAL 16:9 (720x576) VBR, Auto Pan&Scan
Audio:
English (Dolby AC3, 6 ch)
Menu Video:
PAL 16:9 (720x576) VBR
Auto Letterboxed
Menu Subtitles:
Not specified
Menu English Language Unit :
Root Menu
Subpicture Menu
Audio Menu
Angle menu
Chapter (PTT) Menu

MediaInfo

Общее
Полное имя : V:\Torrents\American Made (2017) DVD9 R2\VIDEO_TS\VTS_07_2.VOB
Формат : MPEG-PS
Размер файла : 1024 Мбайт
Продолжительность : 19 м. 47 с.
Режим общего битрейта : Переменный
Общий поток : 7235 Кбит/сек
Видео
Идентификатор : 224 (0xE0)
Формат : MPEG Video
Версия формата : Version 2
Профиль формата : Main@Main
Настройки формата : CustomMatrix / BVOP
Параметр BVOP формата : Да
Параметр матрицы формата : Выборочная
Параметр GOP формата : Variable
Структура изображения : Frame
Продолжительность : 19 м. 47 с.
Вид битрейта : Переменный
Битрейт : 5939 Кбит/сек
Максимальный битрейт : 7530 Кбит/сек
Ширина : 720 пикселей
Высота : 576 пикселей
Соотношение сторон : 16:9
Частота кадров : 25,000 кадров/сек
Стандарт вещания : PAL
Цветовое пространство : YUV
Субдискретизация насыщенности : 4:2:0
Битовая глубина : 8 бит
Тип развёртки : Чересстрочная
Порядок развёртки : Верхнее поле первое
Метод сжатия : С потерями
Бит/(Пиксели*Кадры) : 0.573
Временной код первого кадра : 01:22:03:03
Оригинал временного кода : Group of pictures header
Размер потока : 840 Мбайт (82%)
Аудио #1
Идентификатор : 189 (0xBD)-128 (0x80)
Формат : AC-3
Формат/Информация : Audio Coding 3
Параметр Endianness формата : Big
Режим смешивания : DVD-Video
Продолжительность : 19 м. 47 с.
Вид битрейта : Постоянный
Битрейт : 384 Кбит/сек
Каналы : 6 каналов
Расположение каналов : Front: L C R, Side: L R, LFE
Частота : 48,0 КГц
Частота кадров : 31,250 кадров/сек (1536 SPF)
Битовая глубина : 16 бит
Метод сжатия : С потерями
Задержка видео : -456 мс.
Размер потока : 54,4 Мбайт (5%)
ServiceKind/String : Complete Main
Аудио #2
Идентификатор : 189 (0xBD)-129 (0x81)
Формат : AC-3
Формат/Информация : Audio Coding 3
Параметр Endianness формата : Big
Режим смешивания : DVD-Video
Продолжительность : 19 м. 47 с.
Вид битрейта : Постоянный
Битрейт : 384 Кбит/сек
Каналы : 6 каналов
Расположение каналов : Front: L C R, Side: L R, LFE
Частота : 48,0 КГц
Частота кадров : 31,250 кадров/сек (1536 SPF)
Битовая глубина : 16 бит
Метод сжатия : С потерями
Задержка видео : -456 мс.
Размер потока : 54,4 Мбайт (5%)
ServiceKind/String : Complete Main
Аудио #3
Идентификатор : 189 (0xBD)-130 (0x82)
Формат : AC-3
Формат/Информация : Audio Coding 3
Параметр Endianness формата : Big
Режим смешивания : DVD-Video
Продолжительность : 19 м. 47 с.
Вид битрейта : Постоянный
Битрейт : 384 Кбит/сек
Каналы : 6 каналов
Расположение каналов : Front: L C R, Side: L R, LFE
Частота : 48,0 КГц
Частота кадров : 31,250 кадров/сек (1536 SPF)
Битовая глубина : 16 бит
Метод сжатия : С потерями
Задержка видео : -456 мс.
Размер потока : 54,4 Мбайт (5%)
ServiceKind/String : Complete Main
Текст #1
Идентификатор : 189 (0xBD)-32 (0x20)
Формат : RLE
Формат/Информация : Run-length encoding
Режим смешивания : DVD-Video
Продолжительность : 19 м. 40 с.
Задержка видео : 4 с. 840 мс.
Текст #2
Идентификатор : 189 (0xBD)-33 (0x21)
Формат : RLE
Формат/Информация : Run-length encoding
Режим смешивания : DVD-Video
Продолжительность : 19 м. 40 с.
Задержка видео : 4 с. 560 мс.
Текст #3
Идентификатор : 189 (0xBD)-34 (0x22)
Формат : RLE
Формат/Информация : Run-length encoding
Режим смешивания : DVD-Video
Продолжительность : 19 м. 40 с.
Задержка видео : 4 с. 800 мс.
Текст #4
Идентификатор : 189 (0xBD)-35 (0x23)
Формат : RLE
Формат/Информация : Run-length encoding
Режим смешивания : DVD-Video
Продолжительность : 19 м. 40 с.
Задержка видео : 4 с. 840 мс.
Текст #5
Идентификатор : 189 (0xBD)-36 (0x24)
Формат : RLE
Формат/Информация : Run-length encoding
Режим смешивания : DVD-Video
Продолжительность : 19 м. 40 с.
Задержка видео : 4 с. 840 мс.
Текст #6
Идентификатор : 189 (0xBD)-37 (0x25)
Формат : RLE
Формат/Информация : Run-length encoding
Режим смешивания : DVD-Video
Продолжительность : 19 м. 40 с.
Задержка видео : 4 с. 440 мс.
Текст #7
Идентификатор : 189 (0xBD)-38 (0x26)
Формат : RLE
Формат/Информация : Run-length encoding
Режим смешивания : DVD-Video
Продолжительность : 19 м. 40 с.
Задержка видео : 4 с. 400 мс.
Меню

Доп. информация

Лицензионный диск был скачан с зарубежного сайта. Никаких изменений не вносилось.
-

Скриншоты меню

Скриншоты фильма

Раздаю с 10:00 до 23:00 до 10 скачавших.
[cybertorrent.ru].t42030.torrent 
Торрент: Зарегистрирован [ 2018-03-19 19:00 ] · 2D4979B4E497FA2907E570CEE0E6947BAF09CE17

Скачать .torrent

Скачать

39 KB

Статус: проверено
Скачан: 0 раз
Размер: 7,22 GB
Профиль [ЛС]
Показать сообщения:    

Текущее время: 22-Май 23:30

Часовой пояс: UTC ± 0



Вы не можете начинать темы
Вы не можете отвечать на сообщения
Вы не можете редактировать свои сообщения
Вы не можете удалять свои сообщения
Вы не можете голосовать в опросах
Вы не можете прикреплять файлы к сообщениям
Вы можете скачивать файлы