Статистика раздачи
Размер:  1,51 GB   |    Зарегистрирован:  1 месяц 2 дня   |    Скачан:  0 раз

Полного источника не было: Никогда

 
   
 
 

Awrora ®

Пол:
Не указан
Стаж:
2 месяца 7 дней
Сообщений:
624

Биатлон с Дмитрием Губерниевым
Сезон 2017/2018. Выпуск 10
Дата эфира: 18.03.2018
Комментарий: Профессиональный
Язык комментариев: Русский
Ведущий: Дмитрий Губерниев
Продолжительность: 00:23:55-Описание: Для биатлонистов зима - это время мобилизации сил и полной концентрации. Для зрителей - начало интереснейших соревнований и сильных переживаний за сборную. В программе все, о чем хотят знать болельщики: новости и комментарии, интервью с лидерами соревнований и рассказы о российской команде.-Автор рипа: Настольный теннисист
Качество: HDTV
Формат: TS
Видео кодек: AVC
Аудио кодек: MP2
Видео: MPEG4 Video (H264) 1920x1080 (16:9) 25.00fps 8208kbps
Аудио: MPEG Audio 48000Hz stereo 192kbps

Скриншоты

MediaInfo

General
ID : 1 (0x1)
Complete name : Y:\раздачи\Би с Гу, 17-18, выпуск 10. Злобный.ts
Format : MPEG-TS
File size : 1.51 GiB
Duration : 23 min 55 s
Overall bit rate mode : Variable
Overall bit rate : 9 043 kb/s
Video
ID : 204 (0xCC)
Menu ID : 2204 (0x89C)
Format : AVC
Format/Info : Advanced Video Codec
Format profile : High@L4
Format settings, CABAC : Yes
Format settings, RefFrames : 4 frames
Codec ID : 27
Duration : 23 min 55 s
Bit rate : 8 208 kb/s
Width : 1 920 pixels
Height : 1 080 pixels
Display aspect ratio : 16:9
Frame rate : 25.000 FPS
Standard : Component
Color space : YUV
Chroma subsampling : 4:2:0
Bit depth : 8 bits
Scan type : Interlaced
Scan type, store method : Separated fields
Scan order : Top Field First
Bits/(Pixel*Frame) : 0.158
Stream size : 1.37 GiB (91%)
Color range : Limited
Color primaries : BT.709
Transfer characteristics : BT.709
Matrix coefficients : BT.709
Audio #1
ID : 304 (0x130)
Menu ID : 2204 (0x89C)
Format : MPEG Audio
Format version : Version 1
Format profile : Layer 2
Codec ID : 3
Duration : 23 min 55 s
Bit rate mode : Constant
Bit rate : 192 kb/s
Channel(s) : 2 channels
Sampling rate : 48.0 kHz
Compression mode : Lossy
Stream size : 32.8 MiB (2%)
Language : Russian
Audio #2
ID : 305 (0x131)
Menu ID : 2204 (0x89C)
Format : MPEG Audio
Format version : Version 1
Format profile : Layer 2
Codec ID : 3
Duration : 23 min 55 s
Bit rate mode : Constant
Bit rate : 192 kb/s
Channel(s) : 2 channels
Sampling rate : 48.0 kHz
Compression mode : Lossy
Stream size : 32.8 MiB (2%)
[cybertorrent.ru].t42043.torrent 
Торрент: Зарегистрирован [ 2018-03-19 19:00 ] · 760353852F803E87069153C3CA2285727A3B4C0A

Скачать .torrent

Скачать

16 KB

Статус: проверено
Скачан: 0 раз
Размер: 1,51 GB
Профиль [ЛС]
Показать сообщения:    

Текущее время: 22-Апр 16:11

Часовой пояс: UTC ± 0



Вы не можете начинать темы
Вы не можете отвечать на сообщения
Вы не можете редактировать свои сообщения
Вы не можете удалять свои сообщения
Вы не можете голосовать в опросах
Вы не можете прикреплять файлы к сообщениям
Вы можете скачивать файлы