Статистика раздачи
Размер:  1,3 GB   |    Зарегистрирован:  1 месяц 4 дня   |    Скачан:  0 раз

Полного источника не было: Никогда

 
   
 
 

sansan ®

Пол:
Не указан
Стаж:
2 месяца 5 дней
Сообщений:
251

Счастливая долина / Happy Valley
Год выпуска: 2016
Страна: Великобритания
Жанр: драма, криминал
Продолжительность: 6 x ~00:57:00
Перевод: Профессиональный (многоголосый закадровый) SDI Media
Субтитры: нет
Оригинальная аудиодорожка: нет
Режиссер: Салли Уэйнрайт / Sally Wainwright, Эрос Лин / Euros Lyn, Тим Файвелл / Tim Fywell
В ролях: Сара Ланкашир, Стив Пембертон, Джеймс Нортон, Адам Лонг, Джо Армстронг, Джордж Костиган, Шиван Финнеран, Чарли Мерфи, Джилл Бейкер
Описание: Кэтрин Кэйвуд — сержант полиции Западного Йоркшира. Во время ее дежурства в участок приходит бухгалтер Кевин, чтобы заявить о преступлении. Он очень нервничает и не хочет сообщать детали. Затем выясняется, что когда-то Кевин придумал похитить дочь своего босса и использовать выкуп, чтобы оплатить частную школу для своих детей, и вот теперь местный наркоторговец воплотил фантазию Кевина в жизнь.
Сэмпл | КИНОПОИСК | IMDB | Предыдущие и альтернативные раздачи
Исходник: Generalfilm
Качество: HDRip
Формат: MP4
Видео: Н.264, 640x360 (16:9), 25.000 fps, 400 Kbps
Аудио: AAC LC, 48.0 KHz, 2 ch, 128 Kbps

ТХ/MediaInfo

General
Complete name : /home/roma/Видиво/Schastlivaya.dolina.S02.by.mjjhec/Happy.Valley.S02E04.HDRip.mp4
Format : MPEG-4
Format profile : Base Media
Codec ID : isom (isom/avc1/iso6)
File size : 218 MiB
Duration : 57 min 25 s
Overall bit rate mode : Variable
Overall bit rate : 532 kb/s
Encoded date : UTC 2017-12-26 14:11:03
Tagged date : UTC 2017-12-26 14:11:03
Video
ID : 1
Format : AVC
Format/Info : Advanced Video Codec
Format profile : High@L4.1
Format settings, CABAC : Yes
Format settings, RefFrames : 10 frames
Codec ID : avc1
Codec ID/Info : Advanced Video Coding
Duration : 57 min 25 s
Bit rate : 400 kb/s
Maximum bit rate : 1 136 kb/s
Width : 640 pixels
Height : 360 pixels
Display aspect ratio : 16:9
Frame rate mode : Constant
Frame rate : 25.000 FPS
Color space : YUV
Chroma subsampling : 4:2:0
Bit depth : 8 bits
Scan type : Progressive
Bits/(Pixel*Frame) : 0.069
Stream size : 164 MiB (75%)
Title : 264@GPAC0.5.2-DEV-rev248-g39d5978-master
Writing library : x264 core 146 r2538 121396c
Encoding settings : cabac=1 / ref=10 / deblock=1:-3:-3 / analyse=0x3:0x133 / me=umh / subme=11 / psy=1 / psy_rd=1.00:1.00 / mixed_ref=1 / me_range=48 / chroma_me=1 / trellis=2 / 8x8dct=1 / cqm=0 / deadzone=21,11 / fast_pskip=1 / chroma_qp_offset=-4 / threads=6 / lookahead_threads=1 / sliced_threads=0 / nr=0 / decimate=0 / interlaced=0 / bluray_compat=0 / constrained_intra=0 / bframes=10 / b_pyramid=2 / b_adapt=2 / b_bias=0 / direct=3 / weightb=1 / open_gop=0 / weightp=2 / keyint=240 / keyint_min=24 / scenecut=40 / intra_refresh=0 / rc_lookahead=60 / rc=2pass / mbtree=0 / bitrate=400 / ratetol=1.0 / qcomp=0.60 / qpmin=0 / qpmax=69 / qpstep=4 / cplxblur=20.0 / qblur=0.5 / vbv_maxrate=14000 / vbv_bufsize=14000 / nal_hrd=none / filler=0 / ip_ratio=1.40 / pb_ratio=1.30 / aq=1:1.00
Encoded date : UTC 2017-12-26 14:11:03
Tagged date : UTC 2017-12-26 14:11:06
Audio
ID : 2
Format : AAC
Format/Info : Advanced Audio Codec
Format profile : LC
Codec ID : 40
Duration : 57 min 25 s
Bit rate mode : Variable
Bit rate : 128 kb/s
Maximum bit rate : 136 kb/s
Channel(s) : 2 channels
Channel positions : Front: L R
Sampling rate : 48.0 kHz
Frame rate : 46.875 FPS (1024 SPF)
Compression mode : Lossy
Stream size : 52.6 MiB (24%)
Encoded date : UTC 2017-12-26 13:09:58
Tagged date : UTC 2017-12-26 14:11:06

Скриншоты

[cybertorrent.ru].t42053.torrent 
Торрент: Зарегистрирован [ 2018-03-19 19:00 ] · 494B3C1A2C159F8F9193062D93902B2D1A72E941

Скачать .torrent

Скачать

27 KB

Статус: проверено
Скачан: 0 раз
Размер: 1,3 GB
Профиль [ЛС]
Показать сообщения:    

Текущее время: 24-Апр 04:46

Часовой пояс: UTC ± 0



Вы не можете начинать темы
Вы не можете отвечать на сообщения
Вы не можете редактировать свои сообщения
Вы не можете удалять свои сообщения
Вы не можете голосовать в опросах
Вы не можете прикреплять файлы к сообщениям
Вы можете скачивать файлы