Статистика раздачи
Размер:  5,7 GB   |    Зарегистрирован:  2 месяца 3 дня   |    Скачан:  0 раз

Полного источника не было: Никогда

 
   
 
 

chik ®

Пол:
Не указан
Стаж:
3 месяца 4 дня
Сообщений:
148

High SouthSWR1 Kopfhörer Live



Жанр: Blues, Rock
Продолжительность: 00:59:56
Год выпуска: 2017
Качество: HDTV
Разрешение видео/развертка: 720p
Контейнер: TS
Видео кодек: H.264
Аудио кодек: AC3
Видео: MPEG4 Video (H264) 1280x720 50fps 12.5 Mb/s
Аудио: Dolby AC3 48000Hz stereo 448kbps

Треклист

01. If You Wanna Get To Heaven
02. Make It Better
03. All We Need
04. Ghost Town
05. Candy Apple Mary
06. If You Dig It
07. Honestly
08. 420 on 62
09. Fishin In The Dark
10. Ventura Highway
11. Suite: Judy Blue Eyes
12. The Weight

Отчёт MediaInfo / BDInfo

General
ID : 1 (0x1)
Complete name : F:\High South - SWR1 Kopfhorer Live 2017.ts
Format : MPEG-TS
File size : 5.70 GiB
Duration : 59 min 55 s
Overall bit rate mode : Variable
Overall bit rate : 13.6 Mb/s
Video
ID : 6510 (0x196E)
Menu ID : 1 (0x1)
Format : AVC
Format/Info : Advanced Video Codec
Format profile : High@L4
Format settings, CABAC : Yes
Format settings, RefFrames : 6 frames
Codec ID : 27
Duration : 59 min 55 s
Bit rate : 12.5 Mb/s
Width : 1 280 pixels
Height : 720 pixels
Display aspect ratio : 16:9
Frame rate : 50.000 FPS
Color space : YUV
Chroma subsampling : 4:2:0
Bit depth : 8 bits
Scan type : Progressive
Bits/(Pixel*Frame) : 0.271
Stream size : 5.23 GiB (92%)
Color range : Limited
Color primaries : BT.709
Transfer characteristics : BT.709
Matrix coefficients : BT.709
Audio
ID : 6522 (0x197A)
Menu ID : 1 (0x1)
Format : AC-3
Format/Info : Audio Coding 3
Format settings, Endianness : Big
Codec ID : 6
Duration : 59 min 55 s
Bit rate mode : Constant
Bit rate : 448 kb/s
Channel(s) : 2 channels
Channel positions : Front: L R
Sampling rate : 48.0 kHz
Frame rate : 31.250 FPS (1536 SPF)
Bit depth : 16 bits
Compression mode : Lossy
Stream size : 192 MiB (3%)
Language : German
Service kind : Complete Main
[cybertorrent.ru].t42062.torrent 
Торрент: Зарегистрирован [ 2018-03-19 19:00 ] · 89903E513A58178B47EA873CF0F439A86901B716

Скачать .torrent

Скачать

15 KB

Статус: проверено
Скачан: 0 раз
Размер: 5,7 GB
Профиль [ЛС]
Показать сообщения:    

Текущее время: 22-Май 23:23

Часовой пояс: UTC ± 0



Вы не можете начинать темы
Вы не можете отвечать на сообщения
Вы не можете редактировать свои сообщения
Вы не можете удалять свои сообщения
Вы не можете голосовать в опросах
Вы не можете прикреплять файлы к сообщениям
Вы можете скачивать файлы