Статистика раздачи
Размер:  2,67 GB   |    Зарегистрирован:  1 месяц 3 дня   |    Скачан:  0 раз

Полного источника не было: Никогда

 
   
 
 

Awrora ®

Пол:
Не указан
Стаж:
2 месяца 7 дней
Сообщений:
624

Кубок Мира 2017-18. 8-й этап. Осло-Хольменколлен (Норвегия)
Мужчины. Эстафета 4x7,5 км
Вид спорта: Биатлон
Комментарий: Профессиональный
Язык комментариев: Русский (Губерниев) / Интершум-Описание: Кубок Мира 2017-18. 8-й этап. Осло-Хольменколлен (Норвегия). Мужчины. Эстафета 4x7,5 км.-Автор рипа: Настольный теннисист
Качество: HDTVRip
Формат: MKV
Видео кодек: AVC
Аудио кодек: AC3
Видео: MPEG4 Video (H264) 1280x720 (16:9) 50fps 4148kbps
Аудио 1-2: Dolby AC3 48000Hz stereo 192kbps

Скриншоты

Продолжительность

01:22:47

MediaInfo

General
Unique ID : 121977090948809354982302906141715067269 (0x5BC3EEE61D187D6B6F7A04DB4D0DF185)
Complete name : Y:\раздачи\Осло. М Эстафета. Злобный.mkv
Format : Matroska
Format version : Version 2
File size : 2.67 GiB
Duration : 1 h 22 min
Overall bit rate : 4 624 kb/s
Writing application : Lavf54.63.104
Writing library : Lavf54.63.104
Video
ID : 1
Format : AVC
Format/Info : Advanced Video Codec
Format profile : High@L4.1
Format settings, CABAC : Yes
Format settings, RefFrames : 4 frames
Codec ID : V_MPEG4/ISO/AVC
Duration : 1 h 22 min
Bit rate : 4 148 kb/s
Width : 1 280 pixels
Height : 720 pixels
Display aspect ratio : 16:9
Frame rate mode : Constant
Frame rate : 50.000 FPS
Color space : YUV
Chroma subsampling : 4:2:0
Bit depth : 8 bits
Scan type : Progressive
Bits/(Pixel*Frame) : 0.090
Stream size : 2.40 GiB (90%)
Default : No
Forced : No
Color range : Limited
Color primaries : BT.709
Transfer characteristics : BT.709
Matrix coefficients : BT.709
Audio #1
ID : 2
Format : AC-3
Format/Info : Audio Coding 3
Format settings, Endianness : Big
Codec ID : A_AC3
Duration : 1 h 22 min
Bit rate mode : Constant
Bit rate : 192 kb/s
Channel(s) : 2 channels
Channel positions : Front: L R
Sampling rate : 48.0 kHz
Frame rate : 31.250 FPS (1536 SPF)
Bit depth : 16 bits
Compression mode : Lossy
Stream size : 114 MiB (4%)
Language : Russian
Service kind : Complete Main
Default : Yes
Forced : No
Audio #2
ID : 3
Format : AC-3
Format/Info : Audio Coding 3
Format settings, Endianness : Big
Codec ID : A_AC3
Duration : 1 h 22 min
Bit rate mode : Constant
Bit rate : 192 kb/s
Channel(s) : 2 channels
Channel positions : Front: L R
Sampling rate : 48.0 kHz
Frame rate : 31.250 FPS (1536 SPF)
Bit depth : 16 bits
Compression mode : Lossy
Stream size : 114 MiB (4%)
Service kind : Complete Main
Default : No
Forced : No

Результаты

1. Норвегия
2. Австрия
3. Россия
[cybertorrent.ru].t42064.torrent 
Торрент: Зарегистрирован [ 2018-03-19 19:00 ] · FB0AA3DDBCCFD887CB5303DF2B8F932BCDB4CCFE

Скачать .torrent

Скачать

14 KB

Статус: проверено
Скачан: 0 раз
Размер: 2,67 GB
Профиль [ЛС]
Показать сообщения:    

Текущее время: 22-Апр 23:39

Часовой пояс: UTC ± 0



Вы не можете начинать темы
Вы не можете отвечать на сообщения
Вы не можете редактировать свои сообщения
Вы не можете удалять свои сообщения
Вы не можете голосовать в опросах
Вы не можете прикреплять файлы к сообщениям
Вы можете скачивать файлы