Статистика раздачи
Размер:  210 MB   |    Зарегистрирован:  1 месяц 2 дня   |    Скачан:  0 раз

Полного источника не было: Никогда

 
   
 
 

Катюшка ®

Пол:
Не указан
Стаж:
2 месяца 7 дней
Сообщений:
288

Myke Jackson / Alone
Жанр: Progressive Rock/Psychedelic Rock
Носитель: WEB
Год издания: 1975
Страна исполнителя (группы): USA
Аудиокодек: FLAC (*.flac)
Тип рипа: tracks
Битрейт аудио: lossless
Продолжительность: 37:36
Источник (релизер): Bandcamp
Наличие сканов в содержимом раздачи: нет

01. IN SEARCH OF A HOME [00:05:02]
02. We've Got A New Love [00:04:23]
03. A Theme [00:04:05]
04. Let Me Be A Part Of You [00:04:42]
05. Lost On A Wave [00:04:17]
06. Cloudy Days [00:04:09]
07. I Am A Mockingbird [00:03:21]
08. My Prayer [00:02:36]
09. Wake The Dawn [00:04:57]
Released May 1, 1975--

Лог проверки качества

-----------------------
DON'T MODIFY THIS FILE
-----------------------
PERFORMER: auCDtect Task Manager, ver. 1.6.0 RC1 build 1.6.0.1
Copyright (c) 2008-2010 y-soft. All rights reserved
http://y-soft.org
ANALYZER: auCDtect: CD records authenticity detector, version 0.8.2
Copyright (c) 2004 Oleg Berngardt. All rights reserved.
Copyright (c) 2004 Alexander Djourik. All rights reserved.
FILE: MYKE JACKSON - ALONE - 09 Wake The Dawn.flac
Size: 28970112 Hash: 5EB6AC20752B43D86D84EAD71D2AFC89 Accuracy: -m0
Conclusion: CDDA 99%
Signature: 1BCCDC488C491240D5F664AA3C2749E87C0C4A84
FILE: MYKE JACKSON - ALONE - 08 My Prayer.flac
Size: 13540507 Hash: B4629A52BD616064AA27E565EE492AE9 Accuracy: -m0
Conclusion: CDDA 99%
Signature: 2C08A3786D644C2057178F37C8941E9007691D11
FILE: MYKE JACKSON - ALONE - 07 I Am A Mockingbird.flac
Size: 18805715 Hash: 20A394DE67A967C1DD589B2B64210828 Accuracy: -m0
Conclusion: CDDA 99%
Signature: 6E73B45DE79682E6F53ABA12C5B0F13FC4BA5485
FILE: MYKE JACKSON - ALONE - 06 Cloudy Days.flac
Size: 22221718 Hash: 4751BB20414B993E90F60F747DDBD8D8 Accuracy: -m0
Conclusion: CDDA 100%
Signature: 2108124A0BEBAF623FABE2920674C708F967CF7E
FILE: MYKE JACKSON - ALONE - 05 Lost On A Wave.flac
Size: 25732197 Hash: 86E85380894EE8707260DF7F4F8B5BE2 Accuracy: -m0
Conclusion: CDDA 100%
Signature: 8441ADB6FB9BD2A722D4F72F718F030EB85F4FF5
FILE: MYKE JACKSON - ALONE - 04 Let Me Be A Part Of You.flac
Size: 23520832 Hash: 084410957B9FF139BDC00D56BF33CA79 Accuracy: -m0
Conclusion: CDDA 100%
Signature: A29C2D4AC09303354D6B6EB4EB0B96F919468C3C
FILE: MYKE JACKSON - ALONE - 03 A Theme.flac
Size: 24777144 Hash: 6A081D993ECE373977D7AC5D6787ED72 Accuracy: -m0
Conclusion: CDDA 99%
Signature: 558A3FBD889FA8844F4EC1EC5E89762EBC981549
FILE: MYKE JACKSON - ALONE - 02 We've Got A New Love.flac
Size: 26364722 Hash: 0D567944EBE73257980587FAB2DDC8C0 Accuracy: -m0
Conclusion: CDDA 100%
Signature: 3CA02EB528214FEDCC0756FE5571ABEAE45B6446
FILE: MYKE JACKSON - ALONE - 01 IN SEARCH OF A HOME.flac
Size: 32240327 Hash: F3B8AF7C53FC3F6FCB5EA18929D59FE4 Accuracy: -m0
Conclusion: CDDA 100%
Signature: 5BED999F411058694066F39AD272481F55AC19AF

DRM log

foobar2000 1.3.12 / Dynamic Range Meter 1.1.1
log date: 2018-03-18 20:11:17
--------------------------------------------------------------------------------
Analyzed: MYKE JACKSON / ALONE
--------------------------------------------------------------------------------
DR Peak RMS Duration Track
--------------------------------------------------------------------------------
DR10 0.00 dB -11.52 dB 5:02 01-IN SEARCH OF A HOME
DR11 0.00 dB -13.41 dB 4:23 02-We've Got A New Love
DR11 0.00 dB -12.10 dB 4:05 03-A Theme
DR10 -0.24 dB -14.47 dB 4:43 04-Let Me Be A Part Of You
DR10 0.00 dB -12.24 dB 4:18 05-Lost On A Wave
DR11 -0.40 dB -14.78 dB 4:09 06-Cloudy Days
DR11 -0.45 dB -13.92 dB 3:22 07-I Am A Mockingbird
DR11 -0.07 dB -13.80 dB 2:37 08-My Prayer
DR10 0.00 dB -12.52 dB 4:58 09-Wake The Dawn
--------------------------------------------------------------------------------
Number of tracks: 9
Official DR value: DR11
Samplerate: 44100 Hz
Channels: 2
Bits per sample: 16
Bitrate: 775 kbps
Codec: FLAC
================================================================================
--Felt - Felt (1971)
[cybertorrent.ru].t42072.torrent 
Торрент: Зарегистрирован [ 2018-03-19 19:00 ] · 64E382EBBC9CB5659D839982151D906A99D6FE27

Скачать .torrent

Скачать

18 KB

Статус: проверено
Скачан: 0 раз
Размер: 210 MB
Профиль [ЛС]
Показать сообщения:    

Текущее время: 22-Апр 14:35

Часовой пояс: UTC ± 0



Вы не можете начинать темы
Вы не можете отвечать на сообщения
Вы не можете редактировать свои сообщения
Вы не можете удалять свои сообщения
Вы не можете голосовать в опросах
Вы не можете прикреплять файлы к сообщениям
Вы можете скачивать файлы