Статистика раздачи
Размер:  300 MB   |    Зарегистрирован:  1 месяц 4 дня   |    Скачан:  0 раз

Полного источника не было: Никогда

 
   
 
 

THT ®

Пол:
Не указан
Стаж:
2 месяца 8 дней
Сообщений:
744

Ольга Сергеевна
Название альбома: Отражения тишины
Жанр: Score
Композитор: Микаэл Таривердиев
Год выпуска диска: 2015
Год выпуска фильма: 1975
Страна-производитель диска: РФ
Издатель (лейбл): ООО «Бомба Мьюзик»
Номер по каталогу: BoMB 033-906
Аудиокодек: FLAC (*.flac)
Тип рипа: image+.cue
Битрейт аудио: lossless
Продолжительность: 01:04:03
Источник: собственный рип
Наличие сканов в содержимом раздачи: да
Треклист:
1 Звук Запаздывает За Светом (Pizzicato На Воде)
2 Память
3 Пробежки В Темпе Presto
4 Утро В Горах
5 Слепой Дождик
6 Мелодия
7 Не Исчезай!
8 Танец Отражений
9 Воспоминание
10 Прогулка В Ми-миноре
11 Одиночество Лодки
12 Cembalo Breakdance
13 Ноктюрн
14 Нервы Обожжены
15 Утренняя Москва
16 Детство
17 Круги На Воде
18 Очарованный Странник
19 Ария
20 Тишины Хочу!

Лог создания рипа

Exact Audio Copy V1.3 from 2. September 2016
Отчёт EAC об извлечении, выполненном 18. марта 2018, 20:28
Микаэл Таривердиев / Отражения Тишины
Дисковод: PIONEER DVD-RW DVR-215 Adapter: 0 ID: 0
Режим чтения : Достоверность
Использование точного потока : Да
Отключение кэша аудио : Да
Использование указателей C2 : Нет
Коррекция смещения при чтении : 48
Способность читать области Lead-in и Lead-out : Нет
Заполнение пропущенных сэмплов тишиной : Да
Удаление блоков с тишиной в начале и конце : Нет
При вычислениях CRC использовались нулевые сэмплы : Да
Интерфейс : Установленный внешний ASPI-интерфейс
Выходной формат : Пользовательский кодировщик
Выбранный битрейт : 128 kBit/s
Качество : Высокий
Добавление ID3-тега : Нет
Утилита сжатия : C:\Program Files (x86)\Exact Audio Copy\Flac\flac.exe
Дополнительные параметры : -V -8 -T "Date=%year%" -T "Genre=%genre%" %source%
TOC извлечённого CD
Трек | Старт | Длительность | Начальный сектор | Конечный сектор
---------------------------------------------------------------------
1 | 0:00.00 | 3:07.14 | 0 | 14038
2 | 3:07.14 | 5:28.63 | 14039 | 38701
3 | 8:36.02 | 1:39.37 | 38702 | 46163
4 | 10:15.39 | 4:13.09 | 46164 | 65147
5 | 14:28.48 | 2:27.31 | 65148 | 76203
6 | 16:56.04 | 3:48.67 | 76204 | 93370
7 | 20:44.71 | 4:24.49 | 93371 | 113219
8 | 25:09.45 | 2:43.27 | 113220 | 125471
9 | 27:52.72 | 5:26.66 | 125472 | 149987
10 | 33:19.63 | 2:25.27 | 149988 | 160889
11 | 35:45.15 | 1:53.35 | 160890 | 169399
12 | 37:38.50 | 0:59.34 | 169400 | 173858
13 | 38:38.09 | 2:30.21 | 173859 | 185129
14 | 41:08.30 | 1:52.23 | 185130 | 193552
15 | 43:00.53 | 2:07.73 | 193553 | 203150
16 | 45:08.51 | 2:55.43 | 203151 | 216318
17 | 48:04.19 | 3:55.05 | 216319 | 233948
18 | 51:59.24 | 4:13.28 | 233949 | 252951
19 | 56:12.52 | 5:11.33 | 252952 | 276309
20 | 61:24.10 | 2:39.34 | 276310 | 288268
Характеристики диапазона извлечения и сообщения об ошибках
Выбранный диапазон
Имя файла G:\юзер\Образины\Микаэл Таривердиев - Отражения Тишины.wav
Пиковый уровень 98.8 %
Скорость извлечения 7.8 X
Качество диапазона 99.9 %
CRC теста 028FB503
CRC копии 028FB503
Копирование... OK
Ошибок не произошло
Конец отчёта
==== Контрольная сумма отчёта 7C02F6701F388EEB4114D9B4A2340D2C3CF2EF0DD6DEE3F61A9EC3A159944152 ====

Об альбоме (сборнике)

Прелюдии, композиции, импровизации и монолог из т/ф «Ольга Сергеевна»

Состав

Соло-рояль, клавесин, челеста, вокал - Микаэл Таривердиев
[cybertorrent.ru].t42077.torrent 
Торрент: Зарегистрирован [ 2018-03-19 19:00 ] · 5172E9652A8DE8E73B7735664DB4EB8195EBEB16

Скачать .torrent

Скачать

13 KB

Статус: проверено
Скачан: 0 раз
Размер: 300 MB
Профиль [ЛС]
Показать сообщения:    

Текущее время: 24-Апр 18:21

Часовой пояс: UTC ± 0



Вы не можете начинать темы
Вы не можете отвечать на сообщения
Вы не можете редактировать свои сообщения
Вы не можете удалять свои сообщения
Вы не можете голосовать в опросах
Вы не можете прикреплять файлы к сообщениям
Вы можете скачивать файлы