Статистика раздачи
Размер:  6,52 GB   |    Зарегистрирован:  1 месяц 4 дня   |    Скачан:  0 раз

Полного источника не было: Никогда

 
   
 
 

Катюшка ®

Пол:
Не указан
Стаж:
2 месяца 9 дней
Сообщений:
288

Ветреная река / Wind River
Страна: Великобритания, Канада, США
Жанр: Боевик, триллер, криминал, детектив
Год выпуска: 2017
Продолжительность: 01:46:47
Перевод: Профессиональный (дублированный) BD RUS
Субтитры: Русские (форсированные, полные), Английские
Оригинальная аудиодорожка: английский
Режиссер: Тейлор Шеридан / Taylor Sheridan
В ролях: Джереми Реннер, Элизабет Олсен, Джон Бернтал, Келси Чоу, Джулия Джонс, Тео Брионес, Апесанахкват, Грэм Грин, Танту Кардинал, Эрик Ланж, Джил Бирмингем
Описание: Край, где водятся волки и пумы, а морозные ослепительно-солнечные дни сменяются метелью, где индейцы живут в резервации «Ветреная река», охотник, идущий по следу пумы на снегоходе, натыкается на труп девушки. В край, где нет подкрепления - каждый сам за себя, приезжает молодая сотрудница ФБР и просит охотника помочь найти убийцу. Сюжет фильма основан на реальных событиях.

[box]Скачать сэмпл[/box]
Тип релиза: BDRip 720p
Контейнер: MKV
Видео: MPEG-4 AVC, 7460 Кбит/с, 1280x536, 23,976 fps
Аудио 1: Rus, AC3, 640 kb/s (6 ch), 48 kHz
Аудио 2: Eng, AC3, 640 kb/s (6 ch), 48 kHz
Формат субтитров: softsub (SRT)

Дополнительно

x264 [info]: frame I:1139 Avg QP:14.00 size:109986
x264 [info]: frame P:28869 Avg QP:15.23 size: 57555
x264 [info]: frame B:123609 Avg QP:16.37 size: 33882
x264 [info]: consecutive B-frames: 1.3% 1.5% 5.5% 9.5% 11.0% 52.3% 6.6% 2.6% 6.9% 2.8%
-
[box].NOTES:
* Special thanks to Elheym for the subs.
* Semi-dark, dark scenes background blocking, so they needed mild filter
* and the lower CRF to be kept looking good. Debanded, deblocked with 4 types of f3kdb.
* Greetings: TayTO, DON, Nick007, rose, v0danh, BodoiCuHo, riverstore, wolgone, superstar, AraGorN, NOiZE and my friends ![/box]

MediaInfo

Общее
Уникальный идентификатор : 25148362352209417734256329016298227648 (0x12EB65FE3D661608D167C9A15E6CC7C0)
Полное имя : Wind.River.2017.BDRip.720p.Secrets.mkv
Формат : Matroska
Версия формата : Version 4 / Version 2
Размер файла : 6,52 Гбайт
Продолжительность : 1 ч. 46 м.
Общий поток : 8743 Кбит/сек
Название фильма : Wind River (2017) - Release for rutracker.org by Secrets
Дата кодирования : UTC 2018-03-18 23:16:58
Программа кодирования : mkvmerge v21.0.0 ('Tardigrades Will Inherit The Earth') 64-bit
Библиотека кодирования : libebml v1.3.5 + libmatroska v1.4.8
Видео
Идентификатор : 1
Формат : AVC
Формат/Информация : Advanced Video Codec
Профиль формата : High@L4.1
Настройки формата : CABAC / 12 Ref Frames
Параметр CABAC формата : Да
Параметр RefFrames формата : 12 кадров
Идентификатор кодека : V_MPEG4/ISO/AVC
Продолжительность : 1 ч. 46 м.
Битрейт : 7460 Кбит/сек
Ширина : 1280 пикселей
Высота : 536 пикселей
Соотношение сторон : 2,40:1
Режим частоты кадров : Постоянный
Частота кадров : 23,976 (24000/1001) кадра/сек
Цветовое пространство : YUV
Субдискретизация насыщенности : 4:2:0
Битовая глубина : 8 бит
Тип развёртки : Прогрессивная
Бит/(Пиксели*Кадры) : 0.454
Размер потока : 5,56 Гбайт (85%)
Заголовок : Wind River (2017) - Release for rutracker.org by Secrets
Библиотека кодирования : x264 core 152 r2851+58 429492e t_mod_Custom [8-bit@all X86_64]
Настройки программы : cabac=1 / ref=12 / deblock=1:-3:-3 / analyse=0x3:0x133 / me=umh / subme=11 / psy=1 / fade_compensate=0.00 / psy_rd=1.00:0.00 / mixed_ref=1 / me_range=32 / chroma_me=1 / trellis=2 / 8x8dct=1 / cqm=0 / deadzone=21,11 / fast_pskip=0 / chroma_qp_offset=-2 / threads=12 / lookahead_threads=2 / sliced_threads=0 / nr=0 / decimate=0 / interlaced=0 / bluray_compat=0 / constrained_intra=0 / fgo=0 / bframes=9 / b_pyramid=2 / b_adapt=2 / b_bias=0 / direct=3 / weightb=1 / open_gop=0 / weightp=2 / keyint=250 / keyint_min=23 / scenecut=40 / intra_refresh=0 / rc_lookahead=60 / rc=crf / mbtree=0 / crf=16.5000 / qcomp=0.65 / qpmin=0:0:0 / qpmax=69:69:69 / qpstep=4 / vbv_maxrate=62500 / vbv_bufsize=78125 / crf_max=0.0 / nal_hrd=none / filler=0 / ip_ratio=1.30 / pb_ratio=1.20 / aq=3:0.80 / aq-sensitivity=10.00 / aq-factor=1.00:1.00:1.00 / aq2=0 / aq3=0 / zones=85,321,crf=13/900,2062,crf=15.5/2807,2856,crf=13.5/4500,4804,crf=14.5/6490,6510,crf=13.5/7414,7460,crf=14.5/12051,12120,crf=14.5/23430,23472,crf=15.5/23636,23667,crf=13.5/23706,23770,crf=13.5/23806,23875,crf=13.5/23936,23996,crf=14.5/24363,24482,crf=14.5/24524,24621,crf=14.5/24985,25177,crf=14.5/26912,26940,crf=13/27218,27515,crf=14.5/35041,35743,crf=15.5/43222,43313,crf=15.5/44949,45044,crf=13.5/55268,55311,crf=14.5/55504,55667,crf=14.5/57566,58213,crf=14.5/58269,58950,crf=13.5/59075,60253,crf=13.5/63825,63869,crf=13.5/67910,68401,crf=15.5/68782,75218,crf=15.5/83740,84064,crf=13.5/86448,86694,crf=14.5/103154,103582,crf=13.5/116029,116056,crf=13.5/121120,121205,crf=13.5
Язык : English
Default : Да
Forced : Нет
Цветовой диапазон : Limited
Коэффициенты матрицы : BT.709
Аудио #1
Идентификатор : 2
Формат : AC-3
Формат/Информация : Audio Coding 3
Идентификатор кодека : A_AC3
Продолжительность : 1 ч. 46 м.
Вид битрейта : Постоянный
Битрейт : 640 Кбит/сек
Каналы : 6 каналов
Расположение каналов : Front: L C R, Side: L R, LFE
Частота : 48,0 КГц
Частота кадров : 31,250 кадров/сек (1536 SPF)
Битовая глубина : 16 бит
Метод сжатия : С потерями
Размер потока : 489 Мбайт (7%)
Заголовок : BD RUS
Язык : Russian
ServiceKind/String : Complete Main
Default : Да
Forced : Нет
Аудио #2
Идентификатор : 3
Формат : AC-3
Формат/Информация : Audio Coding 3
Идентификатор кодека : A_AC3
Продолжительность : 1 ч. 46 м.
Вид битрейта : Постоянный
Битрейт : 640 Кбит/сек
Каналы : 6 каналов
Расположение каналов : Front: L C R, Side: L R, LFE
Частота : 48,0 КГц
Частота кадров : 31,250 кадров/сек (1536 SPF)
Битовая глубина : 16 бит
Метод сжатия : С потерями
Размер потока : 489 Мбайт (7%)
Язык : English
ServiceKind/String : Complete Main
Default : Нет
Forced : Нет
Текст #1
Идентификатор : 4
Формат : UTF-8
Идентификатор кодека : S_TEXT/UTF8
Идентификатор кодека/Информация : UTF-8 Plain Text
Продолжительность : 1 ч. 43 м.
Битрейт : 3 бит/сек
ElementCount : 41
Размер потока : 2,39 Кбайт (0%)
Заголовок : Forced
Язык : Russian
Default : Да
Forced : Нет
Текст #2
Идентификатор : 5
Формат : UTF-8
Идентификатор кодека : S_TEXT/UTF8
Идентификатор кодека/Информация : UTF-8 Plain Text
Продолжительность : 1 ч. 43 м.
Битрейт : 89 бит/сек
ElementCount : 1251
Размер потока : 67,4 Кбайт (0%)
Язык : Russian
Default : Нет
Forced : Нет
Текст #3
Идентификатор : 6
Формат : UTF-8
Идентификатор кодека : S_TEXT/UTF8
Идентификатор кодека/Информация : UTF-8 Plain Text
Продолжительность : 1 ч. 45 м.
Битрейт : 51 бит/сек
ElementCount : 1413
Размер потока : 39,7 Кбайт (0%)
Язык : English
Default : Нет
Forced : Нет
Текст #4
Идентификатор : 7
Формат : UTF-8
Идентификатор кодека : S_TEXT/UTF8
Идентификатор кодека/Информация : UTF-8 Plain Text
Продолжительность : 1 ч. 46 м.
Битрейт : 60 бит/сек
ElementCount : 1737
Размер потока : 47,1 Кбайт (0%)
Заголовок : SDH
Язык : English
Default : Нет
Forced : Нет
Текст #5
Идентификатор : 8
Формат : UTF-8
Идентификатор кодека : S_TEXT/UTF8
Идентификатор кодека/Информация : UTF-8 Plain Text
Продолжительность : 1 ч. 46 м.
Битрейт : 79 бит/сек
ElementCount : 1737
Размер потока : 62,0 Кбайт (0%)
Заголовок : SDH-Colored
Язык : English
Default : Нет
Forced : Нет
Меню
00:00:00.000 : en:00:00:00.000
00:06:01.695 : en:00:06:01.695
00:10:42.433 : en:00:10:42.433
00:14:55.394 : en:00:14:55.394
00:19:18.741 : en:00:19:18.741
00:25:52.342 : en:00:25:52.342
00:32:02.921 : en:00:32:02.921
00:37:13.481 : en:00:37:13.481
00:43:34.529 : en:00:43:34.529
00:52:17.259 : en:00:52:17.259
01:00:22.536 : en:01:00:22.536
01:07:09.484 : en:01:07:09.484
01:10:57.920 : en:01:10:57.920
01:18:39.590 : en:01:18:39.590
01:23:46.104 : en:01:23:46.104
01:31:00.538 : en:01:31:00.538
01:36:46.592 : en:01:36:46.592
01:39:41.642 : en:01:39:41.642

Скриншоты

[cybertorrent.ru].t42090.torrent 
Торрент: Зарегистрирован [ 2018-03-19 19:00 ] · 45E82FB94146C687AD7C733F0EF7C876F020F748

Скачать .torrent

Скачать

17 KB

Статус: проверено
Скачан: 0 раз
Размер: 6,52 GB
Профиль [ЛС]
Показать сообщения:    

Текущее время: 24-Апр 14:22

Часовой пояс: UTC ± 0



Вы не можете начинать темы
Вы не можете отвечать на сообщения
Вы не можете редактировать свои сообщения
Вы не можете удалять свои сообщения
Вы не можете голосовать в опросах
Вы не можете прикреплять файлы к сообщениям
Вы можете скачивать файлы