Статистика раздачи
Размер:  604 MB   |    Зарегистрирован:  1 месяц 4 дня   |    Скачан:  0 раз

Полного источника не было: Никогда

 
   
 
 

torrents.pl ®

Пол:
Не указан
Стаж:
2 месяца 9 дней
Сообщений:
93

Helloween / The Dark Ride [Special Edition]
Жанр: Power Metal
Носитель: CD
Страна-производитель диска (релиза): Россия
Год издания: 2000 (Reissue 2017)
Издатель (лейбл): Irond Records
Номер по каталогу: IROND CD 001
Страна исполнителя (группы): Germany
Аудиокодек: FLAC (*.flac)
Тип рипа: image+.cue
Битрейт аудио: lossless
Продолжительность: 01:17:22
Источник (релизер): DissidentAggressor
Наличие сканов в содержимом раздачи: да
Треклист:
01. Beyond The Portal
02. Mr. Torture
03. All Over The Nation
04. Escalation 666
05. Mirror, Mirror
06. If I Could Fly
07. Salvation
08. The Departed
09. I Live For Your Pain
10. We Damn The Night
11. Immortal
12. The Dark Ride
13. The Madness Of The Crowds [Bonus Track]
14. Deliver Us From Temptation [Bonus Track]
15. If I Could Fly (Single Edit) [Bonus Track]
16. Sheer Heart Attack [Bonus Track]
17. Fast As A Shark [Bonus Track]
18. If I Could Fly (Live) [Bonus Track]

Лог создания рипа

Exact Audio Copy V1.1 from 23. June 2015
Отчёт EAC об извлечении, выполненном 18. марта 2018, 14:48
Helloween / The Dark Ride [Special Edition] (RUS)
Дисковод: TSSTcorpCDDVDW SE-208DB Adapter: 1 ID: 2
Режим чтения : Достоверность
Использование точного потока : Да
Отключение кэша аудио : Да
Использование указателей C2 : Нет
Коррекция смещения при чтении : 6
Способность читать области Lead-in и Lead-out : Нет
Заполнение пропущенных сэмплов тишиной : Да
Удаление блоков с тишиной в начале и конце : Нет
При вычислениях CRC использовались нулевые сэмплы : Да
Интерфейс : Встроенный Win32-интерфейс для Win NT/2000
Выходной формат : Пользовательский кодировщик
Выбранный битрейт : 1024 kBit/s
Качество : Высокий
Добавление ID3-тега : Да
Утилита сжатия : C:\Program Files (x86)\Exact Audio Copy\Flac\flac.exe
Дополнительные параметры : -V -8 -T "Date=%year%" -T "Genre=%genre%" %source%
TOC извлечённого CD
Трек | Старт | Длительность | Начальный сектор | Конечный сектор
---------------------------------------------------------------------
1 | 0:00.00 | 0:45.60 | 0 | 3434
2 | 0:45.60 | 3:27.67 | 3435 | 19026
3 | 4:13.52 | 4:54.50 | 19027 | 41126
4 | 9:08.27 | 4:24.35 | 41127 | 60961
5 | 13:32.62 | 3:43.38 | 60962 | 77724
6 | 17:16.25 | 4:08.72 | 77725 | 96396
7 | 21:25.22 | 5:43.00 | 96397 | 122121
8 | 27:08.22 | 4:36.70 | 122122 | 142891
9 | 31:45.17 | 3:59.48 | 142892 | 160864
10 | 35:44.65 | 4:06.40 | 160865 | 179354
11 | 39:51.30 | 4:04.20 | 179355 | 197674
12 | 43:55.50 | 8:51.37 | 197675 | 237536
13 | 52:47.12 | 4:12.58 | 237537 | 256494
14 | 56:59.70 | 4:53.23 | 256495 | 278492
15 | 61:53.18 | 4:10.05 | 278493 | 297247
16 | 66:03.23 | 3:31.51 | 297248 | 313123
17 | 69:34.74 | 3:38.48 | 313124 | 329521
18 | 73:13.47 | 4:08.07 | 329522 | 348128
Характеристики диапазона извлечения и сообщения об ошибках
Выбранный диапазон
Имя файла E:\Rutracker\DissidentAggressor\Helloween\The Dark Ride [Special Edition]\Helloween - The Dark Ride [Special Edition] (RUS).wav
Пиковый уровень 100.0 %
Скорость извлечения 1.8 X
Качество диапазона 99.9 %
CRC теста E790C497
CRC копии E790C497
Копирование... OK
Ошибок не произошло
AccurateRip: сводка
Трек 1 : извлечено точно (доверие 2) [B2AE157A] (AR v2)
Трек 2 : извлечено точно (доверие 2) [157E7010] (AR v2)
Трек 3 : извлечено точно (доверие 2) [C345DED3] (AR v2)
Трек 4 : извлечено точно (доверие 2) [E22A3974] (AR v2)
Трек 5 : извлечено точно (доверие 2) [CF4F94BB] (AR v2)
Трек 6 : извлечено точно (доверие 2) [9F2DB430] (AR v2)
Трек 7 : извлечено точно (доверие 2) [C6C59153] (AR v2)
Трек 8 : извлечено точно (доверие 2) [25AC8B13] (AR v2)
Трек 9 : извлечено точно (доверие 2) [E17D9BCC] (AR v2)
Трек 10 : извлечено точно (доверие 2) [B8A7A2A1] (AR v2)
Трек 11 : извлечено точно (доверие 2) [54E16D73] (AR v2)
Трек 12 : извлечено точно (доверие 2) [61792CF3] (AR v2)
Трек 13 : извлечено точно (доверие 2) [A977F0BE] (AR v2)
Трек 14 : извлечено точно (доверие 2) [08D24C93] (AR v2)
Трек 15 : извлечено точно (доверие 2) [C10F5D40] (AR v2)
Трек 16 : извлечено точно (доверие 2) [6A405C50] (AR v2)
Трек 17 : извлечено точно (доверие 2) [1AFC3DC9] (AR v2)
Трек 18 : извлечено точно (доверие 2) [7A021975] (AR v2)
Все треки извлечены точно
Конец отчёта
==== Контрольная сумма отчёта 93B7EE97D927E60E9C667D0B941B7A1C455D146517F6F030905337DC6CC005E3 ====
Доп. информация: Вот такой 18-трековый вариант этого альбома от Irond Records появился в 2017 году. Причем, все данные о диске указывают, что это издание 2000 года. Хотя в 2000-м году издание Айронда не содержало 4-х бонусов из 6-ти присутствующих здесь. В общем, все как-то запутанно, но диск имеет место быть и, после некоторых раздумий, я решил его здесь выложить. Может быть, кому-нибудь надо .
[cybertorrent.ru].t42096.torrent 
Торрент: Зарегистрирован [ 2018-03-19 19:00 ] · 6873F97973845FD6FA67F899CE85FF65C9D23D92

Скачать .torrent

Скачать

13 KB

Статус: проверено
Скачан: 0 раз
Размер: 604 MB
Профиль [ЛС]
Показать сообщения:    

Текущее время: 24-Апр 18:20

Часовой пояс: UTC ± 0



Вы не можете начинать темы
Вы не можете отвечать на сообщения
Вы не можете редактировать свои сообщения
Вы не можете удалять свои сообщения
Вы не можете голосовать в опросах
Вы не можете прикреплять файлы к сообщениям
Вы можете скачивать файлы