Статистика раздачи
Размер:  557 MB   |    Зарегистрирован:  3 месяца 11 дней   |    Скачан:  0 раз

Полного источника не было: Никогда

Личеров:  3  [  0 KB/s  ]  
 
   
 
 

lopster ®

Пол:
Не указан
Стаж:
3 месяца 11 дней
Сообщений:
612

Мама всегда рядом Год выпуска: 2016
Жанр: триллер, драма, короткометражка
Продолжительность: 00:34:28-Режиссёр: Евгений Пузыревский
В главных ролях: Александра Харитонова, Ангелина Стречина, Денис Шведов-Описание: Поздней ночью в загородный дом врывается отчаянная женщина с ружьём и с порога стреляет в хозяина. Но нападавшая не знает, что мужчина в доме не один.- -Качество: WEB-DLRip-AVC
Формат: MKV
Видео кодек: AVC
Аудио кодек: AAС
Видео: 1098x460, 24 fps, ~2 133 kbps avg, 0.176 bit/pixel
Аудио: 48 kHz, AAC, 2ch, ~125 kbps

скриншоты

MediaInfo

General
Unique ID : 245373165293379656738157784367774895021 (0xB8992714A4FD1857A00EEE5F139D0BAD)
Complete name : D:\Mult\Мама всегда рядом.2016.WEB-DLRip-AVC.mkv
Format : Matroska
Format version : Version 4 / Version 2
File size : 557 MiB
Duration : 34 min
Overall bit rate : 2 261 kb/s
Encoded date : UTC 2017-10-23 15:01:46
Writing application : mkvmerge v13.0.0 ('The Juggler') 64bit
Writing library : libebml v1.3.4 + libmatroska v1.4.5
Video
ID : 1
Format : AVC
Format/Info : Advanced Video Codec
Format profile : High@L4.1
Format settings, CABAC : Yes
Format settings, ReFrames : 9 frames
Codec ID : V_MPEG4/ISO/AVC
Duration : 34 min
Bit rate : 2 133 kb/s
Width : 1 098 pixels
Height : 460 pixels
Display aspect ratio : 2.40:1
Frame rate mode : Constant
Frame rate : 24.000 FPS
Color space : YUV
Chroma subsampling : 4:2:0
Bit depth : 8 bits
Scan type : Progressive
Bits/(Pixel*Frame) : 0.176
Stream size : 526 MiB (94%)
Writing library : x264 core 152 r2851kMod ba24899
Encoding settings : cabac=1 / ref=9 / deblock=1:-2:-1 / analyse=0x3:0x133 / me=umh / subme=11 / psy=1 / fade_compensate=0.00 / psy_rd=1.00:0.05 / mixed_ref=1 / me_range=32 / chroma_me=1 / trellis=2 / 8x8dct=1 / cqm=0 / deadzone=21,11 / fast_pskip=0 / chroma_qp_offset=-3 / threads=6 / lookahead_threads=1 / sliced_threads=0 / nr=0 / decimate=1 / interlaced=0 / bluray_compat=0 / constrained_intra=0 / bframes=16 / b_pyramid=2 / b_adapt=2 / b_bias=0 / direct=3 / weightb=1 / open_gop=0 / weightp=2 / keyint=250 / keyint_min=24 / scenecut=40 / intra_refresh=0 / rc_lookahead=70 / rc=crf / mbtree=0 / crf=18.0000 / qcomp=0.60 / qpmin=0 / qpmax=69 / qpstep=4 / vbv_maxrate=50000 / vbv_bufsize=62500 / crf_max=0.0 / nal_hrd=none / filler=0 / ip_ratio=1.40 / pb_ratio=1.30 / aq=3:0.80
Default : Yes
Forced : No
Color range : Limited
Color primaries : BT.709
Transfer characteristics : BT.709
Matrix coefficients : BT.709
Audio
ID : 2
Format : AAC
Format/Info : Advanced Audio Codec
Format profile : LC
Codec ID : A_AAC
Duration : 34 min
Bit rate : 125 kb/s
Channel(s) : 2 channels
Channel positions : Front: L R
Sampling rate : 48.0 kHz
Frame rate : 46.875 FPS (1024 spf)
Compression mode : Lossy
Stream size : 30.9 MiB (6%)
Default : Yes
Forced : No
[cybertorrent.ru].t421.torrent 
Торрент: Зарегистрирован [ 2018-02-15 15:48 ] · 6EB708D93DD499FD653332216BB8AA278112B8BB

Скачать .torrent

Скачать

11 KB

Статус: проверено
Скачан: 0 раз
Размер: 557 MB
Профиль [ЛС]
Показать сообщения:    

Текущее время: 27-Май 01:35

Часовой пояс: UTC ± 0



Вы не можете начинать темы
Вы не можете отвечать на сообщения
Вы не можете редактировать свои сообщения
Вы не можете удалять свои сообщения
Вы не можете голосовать в опросах
Вы не можете прикреплять файлы к сообщениям
Вы можете скачивать файлы