Статистика раздачи
Размер:  1,63 GB   |    Зарегистрирован:  2 месяца 3 дня   |    Скачан:  0 раз

Полного источника не было: Никогда

 
   
 
 

Катюшка ®

Пол:
Не указан
Стаж:
3 месяца 7 дней
Сообщений:
288

Jeff Wayne ‎– Jeff Wayne's Musical Version Of The War Of The Worlds (Original & Remastered Editions)- -Жанр: Symphonic Rock | Страна исполнителя: UK | Год издания альбома: 1978 |Аудио кодек: FLAC (*.flac) | Тип рипа: image+.cue | Битрейт аудио: lossless | Источник: dafnaplus| Наличие сканов: да, dpi 600-

Jeff Wayne's Musical Version Of The War Of The Worlds (199... Austria Original, Columbia CDCOL 96000)

Disc 1


Продолжительность: 45:10
Трэклист:
01. The Eve Of The War 9:06
02. Horsell Common And The Heat Ray 11:36
03. The Artilleryman And The Fighting Machine 10:36
04. Forever Autumn 7:43
05. Thunder Child 6:08

Лог EAC

Exact Audio Copy V1.3 from 2. September 2016
EAC extraction logfile from 16. March 2018, 12:26
Jeff Wayne / Jeff Wayne's Musical Version Of The War Of The Worlds (Disc 1) (CDCOL 96000)
Used drive : PLEXTOR DVDR PX-891SA Adapter: 1 ID: 0
Read mode : Secure
Utilize accurate stream : Yes
Defeat audio cache : Yes
Make use of C2 pointers : No
Read offset correction : 6
Overread into Lead-In and Lead-Out : No
Fill up missing offset samples with silence : Yes
Delete leading and trailing silent blocks : No
Null samples used in CRC calculations : Yes
Used interface : Native Win32 interface for Win NT & 2000
Used output format : User Defined Encoder
Selected bitrate : 768 kBit/s
Quality : High
Add ID3 tag : No
Command line compressor : C:\Program Files (x86)\Exact Audio Copy\Flac\flac.exe
Additional command line options : -V -8 -T "Genre=%genre%" -T "Artist=%artist%" -T "Title=%title%" -T "Album=%albumtitle%" -T "Date=%year%" -T "Tracknumber=%tracknr%" -T "Comment=%comment%" %source%
TOC of the extracted CD
Track | Start | Length | Start sector | End sector
---------------------------------------------------------
1 | 0:00.00 | 9:06.32 | 0 | 40981
2 | 9:06.32 | 11:36.20 | 40982 | 93201
3 | 20:42.52 | 10:36.15 | 93202 | 140916
4 | 31:18.67 | 7:43.25 | 140917 | 175666
5 | 39:02.17 | 6:07.40 | 175667 | 203231
Range status and errors
Selected range
Filename H:\dafnaplus\Jeff Wayne - The War Of The Worlds\Disc 1\Jeff Wayne - Jeff Wayne's Musical Version Of The War Of The Worlds (Disc 1) (CDCOL 96000).wav
Peak level 91.5 %
Extraction speed 6.5 X
Range quality 99.9 %
Test CRC B0640F9B
Copy CRC B0640F9B
Copy OK
No errors occurred
AccurateRip summary
Track 1 accurately ripped (confidence 121) [BC827DDE] (AR v2)
Track 2 accurately ripped (confidence 120) [21F5E9F3] (AR v2)
Track 3 accurately ripped (confidence 122) [84857171] (AR v2)
Track 4 accurately ripped (confidence 122) [4C795CE9] (AR v2)
Track 5 accurately ripped (confidence 122) [04AA2F02] (AR v2)
All tracks accurately ripped
End of status report
---- CUETools DB Plugin V2.1.6
[CTDB TOCID: oXKJJzmDlDml6tW84AccYPI9D_U-] found
Submit result: oXKJJzmDlDml6tW84AccYPI9D_U- has been confirmed
Track | CTDB Status
1 | (536/548) Accurately ripped
2 | (536/548) Accurately ripped
3 | (535/548) Accurately ripped
4 | (534/548) Accurately ripped
5 | (536/548) Accurately ripped
==== Log checksum 73795A68D6BE521D681578F9E92B21F844EE82DC6FF0FFEE709F8ECD966AD65B ====

DR Log

foobar2000 1.3.16 / Dynamic Range Meter 1.1.1
log date: 2018-03-17 01:26:34
--------------------------------------------------------------------------------
Analyzed: Jeff Wayne / Jeff Wayne's Musical Version Of The War Of The Worlds (Disc 1) (CDCOL 96000)
--------------------------------------------------------------------------------
DR Peak RMS Duration Track
--------------------------------------------------------------------------------
DR10 -0.99 dB -13.69 dB 9:06 01-The Eve Of The War
DR10 -0.76 dB -14.07 dB 11:36 02-Horsell Common And The Heat Ray
DR9 -1.00 dB -12.58 dB 10:36 03-The Artilleryman And The Fighting Machine
DR11 -1.21 dB -15.54 dB 7:43 04-Forever Autumn
DR10 -0.82 dB -13.27 dB 6:08 05-Thunder Child
--------------------------------------------------------------------------------
Number of tracks: 5
Official DR value: DR10
Samplerate: 44100 Hz
Channels: 2
Bits per sample: 16
Bitrate: 882 kbps
Codec: FLAC
================================================================================

Matrix

Disc 2


Продолжительность: 49:53
Трэклист:
01. The Red Weed (Part 1) 5:56
02. The Spirit Of The Man 11:41
03. The Red Weed (Part 2) 6:51
04. Brave New World 12:13
05. Dead London 8:37
06. Epilogue (Part 1) 2:45
07. Epilogue (Part 2) 1:50

Лог EAC

Exact Audio Copy V1.3 from 2. September 2016
EAC extraction logfile from 16. March 2018, 13:29
Jeff Wayne / Jeff Wayne's Musical Version Of The War Of The Worlds (Disc 2) (CDCOL 96000)
Used drive : PLEXTOR DVDR PX-891SA Adapter: 1 ID: 0
Read mode : Secure
Utilize accurate stream : Yes
Defeat audio cache : Yes
Make use of C2 pointers : No
Read offset correction : 6
Overread into Lead-In and Lead-Out : No
Fill up missing offset samples with silence : Yes
Delete leading and trailing silent blocks : No
Null samples used in CRC calculations : Yes
Used interface : Native Win32 interface for Win NT & 2000
Used output format : User Defined Encoder
Selected bitrate : 768 kBit/s
Quality : High
Add ID3 tag : No
Command line compressor : C:\Program Files (x86)\Exact Audio Copy\Flac\flac.exe
Additional command line options : -V -8 -T "Genre=%genre%" -T "Artist=%artist%" -T "Title=%title%" -T "Album=%albumtitle%" -T "Date=%year%" -T "Tracknumber=%tracknr%" -T "Comment=%comment%" %source%
TOC of the extracted CD
Track | Start | Length | Start sector | End sector
---------------------------------------------------------
1 | 0:00.00 | 5:55.47 | 0 | 26671
2 | 5:55.47 | 11:40.48 | 26672 | 79219
3 | 17:36.20 | 6:51.07 | 79220 | 110051
4 | 24:27.27 | 12:12.68 | 110052 | 165019
5 | 36:40.20 | 8:37.10 | 165020 | 203804
6 | 45:17.30 | 2:45.02 | 203805 | 216181
7 | 48:02.32 | 1:50.35 | 216182 | 224466
Range status and errors
Selected range
Filename H:\dafnaplus\Jeff Wayne - The War Of The Worlds\Disc 2\Jeff Wayne - Jeff Wayne's Musical Version Of The War Of The Worlds (Disc 2) (CDCOL 96000).wav
Peak level 92.5 %
Extraction speed 5.6 X
Range quality 99.9 %
Test CRC AA7C5377
Copy CRC AA7C5377
Copy OK
No errors occurred
AccurateRip summary
Track 1 accurately ripped (confidence 5) [0815C1B0] (AR v2)
Track 2 accurately ripped (confidence 5) [A8632792] (AR v2)
Track 3 accurately ripped (confidence 5) [DE28356D] (AR v2)
Track 4 accurately ripped (confidence 5) [E15174E7] (AR v2)
Track 5 accurately ripped (confidence 4) [B22BE27F] (AR v2)
Track 6 accurately ripped (confidence 5) [CAF22353] (AR v2)
Track 7 accurately ripped (confidence 5) [C9CE974D] (AR v2)
All tracks accurately ripped
End of status report
---- CUETools DB Plugin V2.1.6
[CTDB TOCID: cz32cQcJYv4TlkPa.r_BZMaxHjs-] found
Submit result: cz32cQcJYv4TlkPa.r_BZMaxHjs- has been confirmed
Track | CTDB Status
1 | (567/572) Accurately ripped
2 | (525/572) Accurately ripped, or (40/572) differs in 1470 samples @06:12:23-06:12:24
3 | (569/572) Accurately ripped
4 | (565/572) Accurately ripped
5 | (561/572) Accurately ripped, or (2/572) differs in 66 samples @08:34:51-08:34:52
6 | (566/572) Accurately ripped
7 | (569/572) Accurately ripped
==== Log checksum 9E91BF5DF62F89F2E7CC3E9412C774BE2B8BC4C92BC3ED3D91076570643768EC ====

DR Log

foobar2000 1.3.16 / Dynamic Range Meter 1.1.1
log date: 2018-03-16 13:34:37
--------------------------------------------------------------------------------
Analyzed: Jeff Wayne / Jeff Wayne's Musical Version Of The War Of The Worlds (Disc 2) (CDCOL 96000)
--------------------------------------------------------------------------------
DR Peak RMS Duration Track
--------------------------------------------------------------------------------
DR9 -1.25 dB -14.20 dB 5:56 01-The Red Weed (Part 1)
DR10 -1.00 dB -13.71 dB 11:41 02-The Spirit Of The Man
DR9 -0.67 dB -14.52 dB 6:51 03-The Red Weed (Part 2)
DR10 -1.09 dB -14.07 dB 12:13 04-Brave New World
DR9 -1.10 dB -14.12 dB 8:37 05-Dead London
DR10 -3.68 dB -17.12 dB 2:45 06-Epilogue (Part 1)
DR11 -4.82 dB -21.93 dB 1:50 07-Epilogue (Part 2)
--------------------------------------------------------------------------------
Number of tracks: 7
Official DR value: DR10
Samplerate: 44100 Hz
Channels: 2
Bits per sample: 16
Bitrate: 803 kbps
Codec: FLAC
================================================================================

Matrix

Jeff Wayne's Musical Version Of The War Of The Worlds (2009 EU Remastered, Columbia 88697536102)

Disc 1


Продолжительность: 45:08
Трэклист:
01. The Eve Of The War 9:07
02. Horsell Common And The Heat Ray 11:36
03. The Artilleryman And The Fighting Machine 10:36
04. Forever Autumn 7:42
05. Thunder Child 6:07

Лог EAC

Exact Audio Copy V1.3 from 2. September 2016
EAC extraction logfile from 18. March 2018, 21:44
Jeff Wayne / Jeff Wayne's Musical Version Of The War Of The Worlds (Disc 1) (88697536102)
Used drive : PLEXTOR DVDR PX-891SA Adapter: 1 ID: 0
Read mode : Secure
Utilize accurate stream : Yes
Defeat audio cache : Yes
Make use of C2 pointers : No
Read offset correction : 6
Overread into Lead-In and Lead-Out : No
Fill up missing offset samples with silence : Yes
Delete leading and trailing silent blocks : No
Null samples used in CRC calculations : Yes
Used interface : Native Win32 interface for Win NT & 2000
Used output format : User Defined Encoder
Selected bitrate : 768 kBit/s
Quality : High
Add ID3 tag : No
Command line compressor : C:\Program Files (x86)\Exact Audio Copy\Flac\flac.exe
Additional command line options : -V -8 -T "Genre=%genre%" -T "Artist=%artist%" -T "Title=%title%" -T "Album=%albumtitle%" -T "Date=%year%" -T "Tracknumber=%tracknr%" -T "Comment=%comment%" %source%
TOC of the extracted CD
Track | Start | Length | Start sector | End sector
---------------------------------------------------------
1 | 0:00.00 | 9:07.35 | 0 | 41059
2 | 9:07.35 | 11:35.42 | 41060 | 93226
3 | 20:43.02 | 10:36.35 | 93227 | 140961
4 | 31:19.37 | 7:41.68 | 140962 | 175604
5 | 39:01.30 | 6:06.52 | 175605 | 203106
Range status and errors
Selected range
Filename H:\dafnaplus\Jeff Wayne - The War Of The Worlds\Disc 1\Jeff Wayne - Jeff Wayne's Musical Version Of The War Of The Worlds (Disc 1) (88697536102).wav
Peak level 100.0 %
Extraction speed 6.7 X
Range quality 99.9 %
Test CRC 68BB08BA
Copy CRC 68BB08BA
Copy OK
No errors occurred
AccurateRip summary
Track 1 accurately ripped (confidence 43) [E6550C4C] (AR v2)
Track 2 accurately ripped (confidence 43) [69C35579] (AR v2)
Track 3 accurately ripped (confidence 43) [930F8406] (AR v2)
Track 4 accurately ripped (confidence 42) [02CE95FD] (AR v2)
Track 5 accurately ripped (confidence 42) [7FEBC353] (AR v2)
All tracks accurately ripped
End of status report
---- CUETools DB Plugin V2.1.6
[CTDB TOCID: _S.3NWcMsPHPvJI_coKIs5Dj0OI-] found
Submit result: _S.3NWcMsPHPvJI_coKIs5Dj0OI- has been confirmed
Track | CTDB Status
1 | (152/672) Accurately ripped
2 | (152/672) Accurately ripped
3 | (152/672) Accurately ripped
4 | (152/672) Accurately ripped
5 | (152/672) Accurately ripped
==== Log checksum 5991F80F94CA5B8F101EA87424157E65E9274E8D9DFA69769B882AFF13E3F8A1 ====

DR Log

foobar2000 1.3.16 / Dynamic Range Meter 1.1.1
log date: 2018-03-19 00:55:51
--------------------------------------------------------------------------------
Analyzed: Jeff Wayne / Jeff Wayne's Musical Version Of The War Of The Worlds (Disc 1) (88697536102)
--------------------------------------------------------------------------------
DR Peak RMS Duration Track
--------------------------------------------------------------------------------
DR5 0.00 dB -8.49 dB 9:07 01-The Eve Of The War
DR8 0.00 dB -9.64 dB 11:36 02-Horsell Common And The Heat Ray
DR7 0.00 dB -10.18 dB 10:36 03-The Artilleryman And The Fighting Machine
DR6 0.00 dB -9.29 dB 7:42 04-Forever Autumn
DR5 0.00 dB -7.98 dB 6:07 05-Thunder Child
--------------------------------------------------------------------------------
Number of tracks: 5
Official DR value: DR6
Samplerate: 44100 Hz
Channels: 2
Bits per sample: 16
Bitrate: 930 kbps
Codec: FLAC
================================================================================

Matrix

Disc 2


Продолжительность: 58:53
Трэклист:
01. The Red Weed (Part 1) 5:53
02. The Spirit Of Man 11:38
03. The Red Weed (Part 2) 5:25
04. The Artilleryman Returns 1:27
05. Brave New World 12:15
06. Dead London 8:35
07. Epilogue (Part 1) 2:31
08. Epilogue (Part 2) NASA 1:50
09. The Spirit Of Man 2009 (Bonus Track) 4:17
10. The Eve Of The War & Forever Autumn Medley (Bonus Track) 5:01

Лог EAC

Exact Audio Copy V1.3 from 2. September 2016
EAC extraction logfile from 18. March 2018, 22:16
Jeff Wayne / Jeff Wayne's Musical Version Of The War Of The Worlds (Disc 2) (88697536102)
Used drive : PLEXTOR DVDR PX-891SA Adapter: 1 ID: 0
Read mode : Secure
Utilize accurate stream : Yes
Defeat audio cache : Yes
Make use of C2 pointers : No
Read offset correction : 6
Overread into Lead-In and Lead-Out : No
Fill up missing offset samples with silence : Yes
Delete leading and trailing silent blocks : No
Null samples used in CRC calculations : Yes
Used interface : Native Win32 interface for Win NT & 2000
Used output format : User Defined Encoder
Selected bitrate : 768 kBit/s
Quality : High
Add ID3 tag : No
Command line compressor : C:\Program Files (x86)\Exact Audio Copy\Flac\flac.exe
Additional command line options : -V -8 -T "Genre=%genre%" -T "Artist=%artist%" -T "Title=%title%" -T "Album=%albumtitle%" -T "Date=%year%" -T "Tracknumber=%tracknr%" -T "Comment=%comment%" %source%
TOC of the extracted CD
Track | Start | Length | Start sector | End sector
---------------------------------------------------------
1 | 0:00.00 | 5:53.30 | 0 | 26504
2 | 5:53.30 | 11:37.70 | 26505 | 78849
3 | 17:31.25 | 5:24.52 | 78850 | 103201
4 | 22:56.02 | 1:27.28 | 103202 | 109754
5 | 24:23.30 | 12:14.45 | 109755 | 164849
6 | 36:38.00 | 8:35.30 | 164850 | 203504
7 | 45:13.30 | 2:31.00 | 203505 | 214829
8 | 47:44.30 | 1:50.20 | 214830 | 223099
9 | 49:34.50 | 4:16.71 | 223100 | 242370
10 | 53:51.46 | 5:01.34 | 242371 | 264979
11 | 61:25.05 | 17:24.37 | 276380 | 354716
Range status and errors
Selected range
Filename H:\dafnaplus\Jeff Wayne - The War Of The Worlds\Disc 2\Jeff Wayne - Jeff Wayne's Musical Version Of The War Of The Worlds (Disc 2) (88697536102).wav
Peak level 100.0 %
Extraction speed 8.5 X
Range quality 99.9 %
Test CRC 61D36E51
Copy CRC 61D36E51
Copy OK
No errors occurred
AccurateRip summary
Track 1 accurately ripped (confidence 63) [8BB16481] (AR v2)
Track 2 accurately ripped (confidence 64) [4F86D241] (AR v2)
Track 3 accurately ripped (confidence 63) [87CADD1B] (AR v2)
Track 4 accurately ripped (confidence 64) [F9893294] (AR v2)
Track 5 accurately ripped (confidence 64) [A28C1BAB] (AR v2)
Track 6 accurately ripped (confidence 64) [0B31FD7D] (AR v2)
Track 7 accurately ripped (confidence 64) [6780C39E] (AR v2)
Track 8 accurately ripped (confidence 64) [F8A5D43E] (AR v2)
Track 9 accurately ripped (confidence 63) [152BEC71] (AR v2)
Track 10 accurately ripped (confidence 60) [D61A53B3] (AR v2)
All tracks accurately ripped
End of status report
---- CUETools DB Plugin V2.1.6
[CTDB TOCID: u1fvKYRNMyuxtsbNQ0yAwJs0FWA-] found
Submit result: u1fvKYRNMyuxtsbNQ0yAwJs0FWA- has been confirmed
Track | CTDB Status
1 | (169/169) Accurately ripped
2 | (169/169) Accurately ripped
3 | (169/169) Accurately ripped
4 | (169/169) Accurately ripped
5 | (168/169) Accurately ripped
6 | (169/169) Accurately ripped
7 | (169/169) Accurately ripped
8 | (169/169) Accurately ripped
9 | (169/169) Accurately ripped
10 | (169/169) Accurately ripped
==== Log checksum D5B6BB9AFC14535C18BE330E34AB7B1E0FFE18EC74A6441EC73F03C4ECB881B5 ====

DR Log

foobar2000 1.3.16 / Dynamic Range Meter 1.1.1
log date: 2018-03-18 22:18:15
--------------------------------------------------------------------------------
Analyzed: Jeff Wayne / Jeff Wayne's Musical Version Of The War Of The Worlds (Disc 2) (88697536102)
--------------------------------------------------------------------------------
DR Peak RMS Duration Track
--------------------------------------------------------------------------------
DR11 0.00 dB -15.40 dB 5:53 01-The Red Weed (Part 1)
DR9 0.00 dB -11.30 dB 11:38 02-The Spirit Of Man
DR7 0.00 dB -10.90 dB 5:25 03-The Red Weed (Part 2)
DR11 0.00 dB -12.41 dB 1:27 04-The Artilleryman Returns
DR9 0.00 dB -11.84 dB 12:15 05-Brave New World
DR7 0.00 dB -11.41 dB 8:35 06-Dead London
DR10 0.00 dB -12.75 dB 2:31 07-Epilogue (Part 1)
DR10 0.00 dB -14.05 dB 1:50 08-Epilogue (Part 2) NASA
DR7 0.00 dB -9.01 dB 4:17 09-The Spirit Of Man 2009 (Bonus Track)
DR5 -0.40 dB -10.02 dB 5:01 10-The Eve Of The War & Forever Autumn Medley (Bonus Track)
--------------------------------------------------------------------------------
Number of tracks: 10
Official DR value: DR9
Samplerate: 44100 Hz
Channels: 2
Bits per sample: 16
Bitrate: 851 kbps
Codec: FLAC
================================================================================

Matrix

-
[cybertorrent.ru].t42102.torrent 
Торрент: Зарегистрирован [ 2018-03-19 19:00 ] · D0758C2F4F574FD2007B8F12F5687410A626C570

Скачать .torrent

Скачать

23 KB

Статус: проверено
Скачан: 0 раз
Размер: 1,63 GB
Профиль [ЛС]
Показать сообщения:    

Текущее время: 22-Май 23:18

Часовой пояс: UTC ± 0



Вы не можете начинать темы
Вы не можете отвечать на сообщения
Вы не можете редактировать свои сообщения
Вы не можете удалять свои сообщения
Вы не можете голосовать в опросах
Вы не можете прикреплять файлы к сообщениям
Вы можете скачивать файлы