Статистика раздачи
Размер:  461 MB   |    Зарегистрирован:  3 месяца 7 дней   |    Скачан:  0 раз

Полного источника не было: Никогда

Личеров:  3  [  0 KB/s  ]  
 
   
 
 

lopster ®

Пол:
Не указан
Стаж:
3 месяца 7 дней
Сообщений:
612

Он был его другом Год выпуска: 2016
Жанр: драма, мелодрама, триллер, короткометражка
Продолжительность: 00:26:58-Режиссёр: Евгений Пузыревский
В главных ролях: Сергей Походаев, Кирилл Полухин, Иван Мулин, Алексей Колубков, Иван Распопов, Сергей Дубров-Описание: После неудачной попытки совершить свое первое убийство, начинающий маньяк решает, что самый практичный способ «открыть счёт», это убить друга, который тебе полностью доверяет. Так одинокий и психически неуравновешенный молодой человек знакомится с наивным соседским парнишкой.- -Качество: WEB-DLRip-AVC
Формат: MKV
Видео кодек: AVC
Аудио кодек: AAС
Видео: 1126x462, 25 fps, ~2 131 kbps avg, 0.162 bit/pixel
Аудио: 48 kHz, AAC, 2ch, ~253 kbps

скриншоты

MediaInfo

General
Unique ID : 199893994179494782240243717314851288509 (0x96622ED32599D7B7A83E1277A9D2B5BD)
Complete name : D:\Mult\Он был его другом.2016.WEB-DLRip-AVC.mkv
Format : Matroska
Format version : Version 4 / Version 2
File size : 461 MiB
Duration : 26 min
Overall bit rate : 2 386 kb/s
Encoded date : UTC 2017-10-23 10:12:22
Writing application : mkvmerge v13.0.0 ('The Juggler') 64bit
Writing library : libebml v1.3.4 + libmatroska v1.4.5
Video
ID : 1
Format : AVC
Format/Info : Advanced Video Codec
Format profile : High@L4.1
Format settings, CABAC : Yes
Format settings, ReFrames : 9 frames
Codec ID : V_MPEG4/ISO/AVC
Duration : 26 min
Bit rate : 2 131 kb/s
Width : 1 126 pixels
Height : 468 pixels
Display aspect ratio : 2.40:1
Frame rate mode : Constant
Frame rate : 25.000 FPS
Color space : YUV
Chroma subsampling : 4:2:0
Bit depth : 8 bits
Scan type : Progressive
Bits/(Pixel*Frame) : 0.162
Stream size : 411 MiB (89%)
Writing library : x264 core 152 r2851kMod ba24899
Encoding settings : cabac=1 / ref=9 / deblock=1:-2:-1 / analyse=0x3:0x133 / me=umh / subme=11 / psy=1 / fade_compensate=0.00 / psy_rd=1.00:0.05 / mixed_ref=1 / me_range=32 / chroma_me=1 / trellis=2 / 8x8dct=1 / cqm=0 / deadzone=21,11 / fast_pskip=0 / chroma_qp_offset=-3 / threads=6 / lookahead_threads=1 / sliced_threads=0 / nr=0 / decimate=1 / interlaced=0 / bluray_compat=0 / constrained_intra=0 / bframes=16 / b_pyramid=2 / b_adapt=2 / b_bias=0 / direct=3 / weightb=1 / open_gop=0 / weightp=2 / keyint=250 / keyint_min=25 / scenecut=40 / intra_refresh=0 / rc_lookahead=70 / rc=crf / mbtree=0 / crf=18.0000 / qcomp=0.60 / qpmin=0 / qpmax=69 / qpstep=4 / vbv_maxrate=50000 / vbv_bufsize=62500 / crf_max=0.0 / nal_hrd=none / filler=0 / ip_ratio=1.40 / pb_ratio=1.30 / aq=3:0.80
Default : Yes
Forced : No
Color range : Limited
Color primaries : BT.709
Transfer characteristics : BT.709
Matrix coefficients : BT.709
Audio
ID : 2
Format : AAC
Format/Info : Advanced Audio Codec
Format profile : LC
Codec ID : A_AAC
Duration : 26 min
Bit rate : 253 kb/s
Channel(s) : 2 channels
Channel positions : Front: L R
Sampling rate : 48.0 kHz
Frame rate : 46.875 FPS (1024 spf)
Compression mode : Lossy
Stream size : 48.9 MiB (11%)
Default : Yes
Forced : No
[cybertorrent.ru].t422.torrent 
Торрент: Зарегистрирован [ 2018-02-15 15:48 ] · BBC6AE44F8DF8C60F3C758A35DC2F38C1D41DEF8

Скачать .torrent

Скачать

18 KB

Статус: проверено
Скачан: 0 раз
Размер: 461 MB
Профиль [ЛС]
Показать сообщения:    

Текущее время: 23-Май 07:18

Часовой пояс: UTC ± 0



Вы не можете начинать темы
Вы не можете отвечать на сообщения
Вы не можете редактировать свои сообщения
Вы не можете удалять свои сообщения
Вы не можете голосовать в опросах
Вы не можете прикреплять файлы к сообщениям
Вы можете скачивать файлы