Статистика раздачи
Размер:  747 MB   |    Зарегистрирован:  6 месяцев 29 дней   |    Скачан:  0 раз

Полного источника не было: Никогда

   
 

солнышко ®

Пол:
Не указан
Стаж:
7 месяцев 4 дня
Сообщений:
565


Дэвид Брент: Жизнь в дороге/ David Brent: Life on the Road
«The boss is back»
- Страна: Великобритания, США
Студия: BBC Films, Entertainment One
Жанр: комедия, музыка
Год выпуска: 2016
Продолжительность: 01:35:58
Перевод: Одноголосый закадровый (Kirk Lazarus)
Субтитры: нет
Оригинальная аудиодорожка: нет
Режиссер: Рики Джервэйс / Ricky Gervais
В ролях: Рики Джервэйс, Роб Джарвис, Эбби Мёрфи, Мандип Диллон, Джо Хартли, Эндрю Брук, Майлс Чапман, Том Беннетт, Ребекка Гетингс, Ким Бенсон
Описание: Действие фильма будет разворачиваться спустя 15 лет после событий сериала. Дэвид Брент, покинувший компанию Wernham Hogg, работает торговым представителем клининговой компании, но мечтает о карьере рок-звезды. Он отправляется в гастрольный тур по Великобритании, снимая о своем путешествии документальный фильм…

Тип релиза: HDRip [Neon_project] (David.Brent.Life.on.the.Road.2016.1080p.BluRay.x264-EiDER)
Контейнер: AVI
Видео: 688x368 (1.87:1), 23.976 fps, XviD build 50 ~950 kbps avg, 0.16 bit/pixel
Аудио: 48 kHz, MPEG Layer 3, 2 ch, ~128.00 kbps avg

MediaInfo

Полное имя : \David.Brent.Life.on.the.Road.2016.HDRip.avi
Формат : AVI
Формат/Информация : Audio Video Interleave
Размер файла : 747 Мбайт
Продолжительность : 1 ч. 35 м.
Общий поток : 1088 Кбит/сек
Название фильма : Дэвид Брент: Жизнь в дороге / David Brent: Life on the Road
Режиссёр : Рики Джервэйс / Ricky Gervais
Жанр : комедия, музыка
Программа кодирования : VirtualDubMod 1.5.10.3 | www.virtualdub-fr.org || (build 2550/release)
Формат оригинала/Имя : фильм
Примечание : Neon_project
Видео
Идентификатор : 0
Формат : MPEG-4 Visual
Профиль формата : Advanced Simple@L5
Настройки формата : BVOP1 / Custom Matrix
Параметр BVOP формата : 1
Параметр QPel формата : Нет
Параметр GMC формата : Без точки перехода
Параметр матрицы формата : Выборочная
Идентификатор кодека : XVID
Идентификатор кодека/Подсказка : XviD
Продолжительность : 1 ч. 35 м.
Битрейт : 951 Кбит/сек
Ширина : 688 пикселей
Высота : 368 пикселей
Соотношение сторон : 1,85:1
Частота кадров : 23,976 (24000/1001) кадра/сек
Цветовое пространство : YUV
Субдискретизация насыщенности : 4:2:0
Битовая глубина : 8 бит
Тип развёртки : Прогрессивная
Метод сжатия : С потерями
Бит/(Пиксели*Кадры) : 0.157
Размер потока : 653 Мбайт (87%)
Библиотека кодирования : XviD 1.2.1 (UTC 2008-12-04)
Аудио
Идентификатор : 1
Формат : MPEG Audio
Версия формата : Version 1
Профиль формата : Layer 3
Настройки формата : Joint stereo / MS Stereo
Идентификатор кодека : 55
Идентификатор кодека/Подсказка : MP3
Продолжительность : 1 ч. 35 м.
Вид битрейта : Постоянный
Битрейт : 128 Кбит/сек
Каналы : 2 канала
Частота : 48,0 КГц
Частота кадров : 41,667 кадра/сек (1152 SPF)
Метод сжатия : С потерями
Размер потока : 87,9 Мбайт (12%)
Выравнивание : Соединение по промежуткам
Продолжительность промежутка : 42 мс. (1,00 видеокадр)
Время предзагрузки промежутка : 504 мс.
Библиотека кодирования : LAME3.99r
Настройки программы : -m j -V 4 -q 0 -lowpass 17 -b 128

Скриншот c названием фильма

Скриншоты


[cybertorrent.ru].t422.torrent 
Торрент: Зарегистрирован [ 2019-03-18 13:08 ] · 5D3E29F1D2ECE8BECFF7479CD1FA80A6B2782EA5

Скачать .torrent

Скачать

15 KB

Статус: проверено
Скачан: 0 раз
Размер: 747 MB
terms.php
Профиль ЛС
Показать сообщения:    

Текущее время: 17-Окт 07:57

Часовой пояс: UTC ± 0



Вы не можете начинать темы
Вы не можете отвечать на сообщения
Вы не можете редактировать свои сообщения
Вы не можете удалять свои сообщения
Вы не можете голосовать в опросах
Вы не можете прикреплять файлы к сообщениям
Вы можете скачивать файлы