Статистика раздачи
Размер:  1,46 GB   |    Зарегистрирован:  3 месяца 10 дней   |    Скачан:  0 раз
Сидов:  3  [  0 KB/s  ]   Личеров:  3  [  0 KB/s  ]  
 
   
 
 

lopster ®

Пол:
Не указан
Стаж:
3 месяца 11 дней
Сообщений:
612

Собачий рай
Жанр: семейный
Год выпуска: 2013
Продолжительность: 01:51:24
Режиссёр: Анна Чернакова
В ролях: Александр Кудрявцев, Анна Корнева, Марина Игнатова, Игорь Гордин, Александр Адабашьян, Наталья Ткаченко, Нина Семенова, Анастасия Фурса, Глафира Тарханова, Наталья Акимова, Лидия Байрашевская, Константин Воробьёв

Описание: Действие фильма происходит в Москве в 1953 году в доме, что стоит на проезде Серова. Там живет 12-летняя девочка Таня, которая в этом году не уехала в летний лагерь. И в этот дом возвращается из дальней магаданской ссылки семья мальчика Мити. Он рассказывает Тане, что там, откуда приехала его семья, осталась любимая собака по кличке Гектор. Таня и Митя делают все, чтобы вернуть Гектора в Москву, а в ходе поисков всех возможных вариантов, узнают тайны семьи Митьки.
Кинопоиск
Sample
Качество видео: WEB-DLRip
Формат видео: AVI
Видео: 688x384 (1.79:1), 25 fps, XviD build 73 ~1674 kbps avg, 0.25 bit/pixel
Аудио: 48 kHz, AC3 Dolby Digital, 2/0 (L,R) ch, ~192 kbps

MediaInfo

General
Complete name : D:\Собачий рай.2013.XviD.MegaPeer.avi
Format : AVI
Format/Info : Audio Video Interleave
File size : 1.46 GiB
Duration : 1h 51mn
Overall bit rate : 1 877 Kbps
Writing application : VirtualDubMod 1.5.10.2 (build 2540/release)
Writing library : VirtualDubMod build 2540/release
Video
ID : 0
Format : MPEG-4 Visual
Format profile : Advanced Simple@L5
Format settings, BVOP : 1
Format settings, QPel : No
Format settings, GMC : No warppoints
Format settings, Matrix : Custom
Codec ID : XVID
Codec ID/Hint : XviD
Duration : 1h 51mn
Bit rate : 1 675 Kbps
Width : 688 pixels
Height : 384 pixels
Display aspect ratio : 16:9
Frame rate : 25.000 fps
Color space : YUV
Chroma subsampling : 4:2:0
Bit depth : 8 bits
Scan type : Progressive
Compression mode : Lossy
Bits/(Pixel*Frame) : 0.254
Stream size : 1.30 GiB (89%)
Writing library : XviD 73
Audio
ID : 1
Format : AC-3
Format/Info : Audio Coding 3
Mode extension : CM (complete main)
Format settings, Endianness : Big
Codec ID : 2000
Duration : 1h 51mn
Bit rate mode : Constant
Bit rate : 192 Kbps
Channel count : 2 channels
Channel positions : Front: L R
Sampling rate : 48.0 KHz
Bit depth : 16 bits
Compression mode : Lossy
Stream size : 153 MiB (10%)
Alignment : Split accross interleaves
Interleave, duration : 40 ms (1.00 video frame)
Interleave, preload duration : 500 ms

Скриншот c названием фильма

Скриншоты


[cybertorrent.ru].t424.torrent 
Торрент: Зарегистрирован [ 2018-02-15 15:48 ] · 68DA57BC8989DC6CB00625AF7D3631E4EDCE3747

Скачать .torrent

Скачать

15 KB

Статус: проверено
Скачан: 0 раз
Размер: 1,46 GB
Профиль [ЛС]
Показать сообщения:    

Текущее время: 26-Май 15:42

Часовой пояс: UTC ± 0



Вы не можете начинать темы
Вы не можете отвечать на сообщения
Вы не можете редактировать свои сообщения
Вы не можете удалять свои сообщения
Вы не можете голосовать в опросах
Вы не можете прикреплять файлы к сообщениям
Вы можете скачивать файлы