Статистика раздачи
Размер:  1,36 GB   |    Зарегистрирован:  3 месяца 12 дней   |    Скачан:  0 раз
Сидов:  218  [  0 KB/s  ]   Личеров:  11  [  0 KB/s  ]  
 
   
 
 

lopster ®

Пол:
Не указан
Стаж:
3 месяца 12 дней
Сообщений:
612

Эхо греха
Жанр: мелодрама
Год выпуска: 2016
Продолжительность: 01:30:51
Режиссёр: Максим Демченко
В ролях: Валентина Гарцуева, Елена Побегаева, Руслан Чернецкий, Иван Николаев, Дмитрий Абазовик, Александра Гайдук

Описание: Нина Соловьева была абсолютно счастлива. Она ждала ребенка и вот-вот должна была выйти замуж за любимого человека. Но все рушится, когда на мальчишнике накануне свадьбы ее жениха Сергея арестовывают по обвинению в изнасиловании. Сергея сажают в СИЗО, и он погибает в тюремной драке. Нина, которая в этот момент была на большом сроке беременности, теряет и ребенка, и саму возможность иметь детей в будущем. Костя - друг и одноклассник Сергея - уговаривает Нину отомстить людям, которые лишили ее всего. Он рассказывает девушке, что Сергея подставили и оклеветали Алена и Денис - владельцы мотеля "Парадайз", где, якобы, произошло изнасилование. Нина устраивается горничной в этот мотель. Она решает уничтожить своих врагов. Но чем больше Нина узнает их, тем больше проникается к ним симпатией. Как ни странно, Денис и Алена кажутся ей честными и порядочными людьми...
Кинопоиск
Sample
Качество видео: WEB-DLRip
Формат видео: AVI
Видео: 720x400 (1.80:1), 25 fps, XviD build 73 ~1947 kbps avg, 0.27 bit/pixel
Аудио: 48 kHz, AC3 Dolby Digital, 2/0 (L,R) ch, ~192 kbps

MediaInfo

General
Complete name : D:\Эхо греха 2016.WEB-DLRip.Files-x.avi
Format : AVI
Format/Info : Audio Video Interleave
File size : 1.36 GiB
Duration : 1h 30mn
Overall bit rate : 2 150 Kbps
Writing application : VirtualDubMod 1.5.10.3 | www.virtualdub-fr.org || (build 2550/release)
Writing library : VirtualDubMod build 2550/release
Video
ID : 0
Format : MPEG-4 Visual
Format profile : Advanced Simple@L5
Format settings, BVOP : 1
Format settings, QPel : No
Format settings, GMC : No warppoints
Format settings, Matrix : Custom
Codec ID : XVID
Codec ID/Hint : XviD
Duration : 1h 30mn
Bit rate : 1 948 Kbps
Width : 720 pixels
Height : 400 pixels
Display aspect ratio : 16:9
Frame rate : 25.000 fps
Color space : YUV
Chroma subsampling : 4:2:0
Bit depth : 8 bits
Scan type : Progressive
Compression mode : Lossy
Bits/(Pixel*Frame) : 0.271
Stream size : 1.24 GiB (91%)
Writing library : XviD 73
Audio
ID : 1
Format : AC-3
Format/Info : Audio Coding 3
Mode extension : CM (complete main)
Format settings, Endianness : Big
Codec ID : 2000
Duration : 1h 30mn
Bit rate mode : Constant
Bit rate : 192 Kbps
Channel count : 2 channels
Channel positions : Front: L R
Sampling rate : 48.0 KHz
Bit depth : 16 bits
Compression mode : Lossy
Stream size : 125 MiB (9%)
Alignment : Split accross interleaves
Interleave, duration : 40 ms (1.00 video frame)
Interleave, preload duration : 500 ms

Скриншот c названием фильма

Скриншоты


[cybertorrent.ru].t426.torrent 
Торрент: Зарегистрирован [ 2018-02-15 15:48 ] · 32E3444F5EE8C384FA8801EB2A29D875883EDADE

Скачать .torrent

Скачать

14 KB

Статус: проверено
Скачан: 0 раз
Размер: 1,36 GB
Профиль [ЛС]
Показать сообщения:    

Текущее время: 28-Май 08:05

Часовой пояс: UTC ± 0



Вы не можете начинать темы
Вы не можете отвечать на сообщения
Вы не можете редактировать свои сообщения
Вы не можете удалять свои сообщения
Вы не можете голосовать в опросах
Вы не можете прикреплять файлы к сообщениям
Вы можете скачивать файлы