Статистика раздачи
Размер:  1,46 GB   |    Зарегистрирован:  3 месяца 9 дней   |    Скачан:  0 раз

Полного источника не было: Никогда

 
   
 
 

lopster ®

Пол:
Не указан
Стаж:
3 месяца 9 дней
Сообщений:
612

Монах и бес
Страна: Россия
Жанр: Комедия, фантастика
Год выпуска: 2016
Продолжительность: 01:53:03
Режиссёр: Николай Досталь
В ролях: Тимофей Трибунцев, Георгий Фетисов, Борис Каморзин, Роман Мадянов, Никита Тарасов, Сергей Барковский
Описание: Фантастическая история первой половины XIX века. В мужском монастыре появляется новый насельник Иван Семенович. Но вместе с монахом в монастырь проникают темные силы, которые материализуются в лице Легиона (так он представился Ивану). Легион избрал Ивана объектом своей дьявольской работы, всячески искушая его, чтобы сбить с избранного им пути служения Богу. Но чем сильнее искушение, тем крепче духовные силы Ивана.6.9 : кинопоиск | imdb : 6.9Качество видео: WEB-DLRip-AVC | Сэмпл | Исходник: WEB-DL 1080p
Формат видео: MKV
Видео: AVC, 862x466 (1.850), 24.000 fps, 1 461 kb/s, 0.152 bit/pixel
Аудио: AC3, 48.0 kHz, 384 kb/s, 6 channels

x264 + MediaInfo

-[Information] [23.06.2017 18:42:20] x264 [info]: frame I:964   Avg QP:15.33  size: 60049
-[Information] [23.06.2017 18:42:20] x264 [info]: frame P:41313 Avg QP:18.24  size: 16026
-[Information] [23.06.2017 18:42:20] x264 [info]: frame B:120530 Avg QP:20.10  size:  4302
Код:General
Unique ID : 234738220505471565670142849598149223304 (0xB098EFD1E2FBA6BD83027EF42FD5E388)
Complete name : E:\monah.i.bes.2016.webdl-rip-avc.mkv
Format : Matroska
Format version : Version 4 / Version 2
File size : 1.46 GiB
Duration : 1 h 53 min
Overall bit rate : 1 846 kb/s
Movie name : Монах и бес (2016)
Encoded date : UTC 2017-11-01 08:27:19
Writing application : mkvmerge v10.0.0 ('To Drown In You') 64bit
Writing library : libebml v1.3.4 + libmatroska v1.4.5
Video
ID : 1
Format : AVC
Format/Info : Advanced Video Codec
Format profile : High@L4
Format settings, CABAC : Yes
Format settings, ReFrames : 12 frames
Codec ID : V_MPEG4/ISO/AVC
Duration : 1 h 53 min
Bit rate : 1 461 kb/s
Width : 862 pixels
Height : 466 pixels
Display aspect ratio : 1.85:1
Frame rate mode : Constant
Frame rate : 24.000 FPS
Color space : YUV
Chroma subsampling : 4:2:0
Bit depth : 8 bits
Scan type : Progressive
Bits/(Pixel*Frame) : 0.152
Stream size : 1.15 GiB (79%)
Title : Монах и бес
Writing library : x264 core 150 r2833kMod df79067
Encoding settings : cabac=1 / ref=12 / deblock=1:-1:-1 / analyse=0x3:0x113 / me=umh / subme=10 / psy=1 / fade_compensate=0.00 / psy_rd=1.00:0.15 / mixed_ref=1 / me_range=32 / chroma_me=1 / trellis=2 / 8x8dct=1 / cqm=0 / deadzone=21,11 / fast_pskip=0 / chroma_qp_offset=-3 / threads=6 / lookahead_threads=1 / sliced_threads=0 / nr=0 / decimate=1 / interlaced=0 / bluray_compat=0 / constrained_intra=0 / bframes=13 / b_pyramid=2 / b_adapt=2 / b_bias=0 / direct=3 / weightb=1 / open_gop=0 / weightp=2 / keyint=240 / keyint_min=24 / scenecut=40 / intra_refresh=0 / rc_lookahead=60 / rc=2pass / mbtree=0 / bitrate=1461 / ratetol=1.0 / qcomp=0.60 / qpmin=0 / qpmax=69 / qpstep=4 / cplxblur=20.0 / qblur=0.5 / vbv_maxrate=25000 / vbv_bufsize=31250 / nal_hrd=none / filler=0 / ip_ratio=1.40 / pb_ratio=1.30 / aq=1:1.00
Language : English
Default : Yes
Forced : No
Audio
ID : 2
Format : AC-3
Format/Info : Audio Coding 3
Format settings, Endianness : Big
Codec ID : A_AC3
Duration : 1 h 53 min
Bit rate mode : Constant
Bit rate : 384 kb/s
Channel(s) : 6 channels
Channel positions : Front: L C R, Side: L R, LFE
Sampling rate : 48.0 kHz
Frame rate : 31.250 FPS (1536 spf)
Bit depth : 16 bits
Compression mode : Lossy
Stream size : 311 MiB (21%)
Language : Russian
Service kind : Complete Main
Default : Yes
Forced : No

Сравнение

Сравнение с AVI рипом:
screenshotcomparison

Знаете ли вы, что...

* Юрий Арабов написал сценарий еще в 2013 году, но из-за проблем с финансированием съемки начались лишь спустя два года.
* Фильм снимался в Вологодской области на территории Кирилло-Белозерского монастыря, в иорданском городе Петра, на побережье Мертвого моря и в Крыму, где снимались сцены в Иерусалиме.

Премии и номинации

Золотой орел, 2017 год
Победитель (1):
Лучший сценарий
Номинации (1):
Лучшая мужская роль второго плана (Роман Мадянов)
Ника, 2017 год
Победитель (4):
Лучшая мужская роль ( Тимофей Трибунцев )
Лучшая мужская роль второго плана ( Борис Каморзин )
Лучший сценарий
Лучший звук

Номинации (2):
Лучший фильм
Лучший режиссер (Николай Досталь)
ММКФ, 2016 год
Номинации (1):
Приз за лучший фильм - Золотой «Святой Георгий»
[cybertorrent.ru].t428.torrent 
Торрент: Зарегистрирован [ 2018-02-15 15:48 ] · 7D0FF377A31ADBCBCECBD3FCA4D054CD781B0F48

Скачать .torrent

Скачать

15 KB

Статус: проверено
Скачан: 0 раз
Размер: 1,46 GB
Профиль [ЛС]
Показать сообщения:    

Текущее время: 25-Май 09:06

Часовой пояс: UTC ± 0



Вы не можете начинать темы
Вы не можете отвечать на сообщения
Вы не можете редактировать свои сообщения
Вы не можете удалять свои сообщения
Вы не можете голосовать в опросах
Вы не можете прикреплять файлы к сообщениям
Вы можете скачивать файлы