Статистика раздачи
Размер:  698 MB   |    Зарегистрирован:  3 месяца 9 дней   |    Скачан:  0 раз

Полного источника не было: Никогда

 
   
 
 

lopster ®

Пол:
Не указан
Стаж:
3 месяца 9 дней
Сообщений:
612

Мы дети твои Москва! Праздник
Жанр: документально-художественный
Год выпуска: 1997
Продолжительность: 00:43:21
Режиссёр: Владимир Хотиненко
В ролях: Александр Збруев, Михаил Филипчук, Ксана Радченко, Нина Усатова, Вадим Вильский
Описание: Фильм снят на улицах и площадях Москвы в дни празднования ее 850 летнего юбилея...
Специальный приз режиссеру (В.Хотиненко) от оргкомитета фестиваля Кинофестиваль «Московский Пегас-99» (к/т «Москва»).
Доп. информация: За оцифровку и предоставление для релиза на рутрекере большое спасибо RITONIS
Релиз
Сэмпл: https://yadi.sk/i/i4Gy5R8S3PPDKz
Качество видео: VHSRip
Формат видео: AVI
Видео: 704x528 (1.33:1), 25 fps, XviD build 73 ~2047 kbps avg, 0.22 bit/pixel
Аудио: 48 kHz, AC3 Dolby Digital, 2/0 (L,R) ch, ~192 kbps

MediaInfo

Мы дети твои Москва, Праздник [by RITONS].avi
Format : AVI
Format/Info : Audio Video Interleave
File size : 698 MiB
Duration : 43 min 21 s
Overall bit rate : 2 250 kb/s
Movie name : Мы дети твои Москва, Праздник [by RITONS]
Director : by RITONS
Writing application : VirtualDubMod 1.5.10.3 | www.virtualdub-fr.org || (build 2550/release)
Copyright : Edich2
Comment : RuTracker.org
Video
ID : 0
Format : MPEG-4 Visual
Format profile : Advanced Simple@L5
Format settings, BVOP : 1
Format settings, QPel : No
Format settings, GMC : No warppoints
Format settings, Matrix : Custom
Codec ID : XVID
Codec ID/Hint : XviD
Duration : 43 min 21 s
Bit rate : 2 048 kb/s
Width : 704 pixels
Height : 528 pixels
Display aspect ratio : 4:3
Frame rate : 25.000 FPS
Color space : YUV
Chroma subsampling : 4:2:0
Bit depth : 8 bits
Scan type : Progressive
Compression mode : Lossy
Bits/(Pixel*Frame) : 0.220
Stream size : 635 MiB (91%)
Writing library : XviD 73
Audio
ID : 1
Format : AC-3
Format/Info : Audio Coding 3
Format settings, Endianness : Big
Codec ID : 2000
Duration : 43 min 20 s
Bit rate mode : Constant
Bit rate : 192 kb/s
Channel(s) : 2 channels
Channel positions : Front: L R
Sampling rate : 48.0 kHz
Frame rate : 31.250 FPS (1536 spf)
Bit depth : 16 bits
Compression mode : Lossy
Stream size : 59.5 MiB (9%)
Alignment : Split accross interleaves
Interleave, duration : 40 ms (1.00 video frame)
Interleave, preload duratio : 500 ms
Service kind : Complete Main

Скриншоты


[cybertorrent.ru].t429.torrent 
Торрент: Зарегистрирован [ 2018-02-15 15:48 ] · 31AF020DC01168178E925BC950493FD09516F1D8

Скачать .torrent

Скачать

14 KB

Статус: проверено
Скачан: 0 раз
Размер: 698 MB
Профиль [ЛС]
Показать сообщения:    

Текущее время: 25-Май 08:59

Часовой пояс: UTC ± 0



Вы не можете начинать темы
Вы не можете отвечать на сообщения
Вы не можете редактировать свои сообщения
Вы не можете удалять свои сообщения
Вы не можете голосовать в опросах
Вы не можете прикреплять файлы к сообщениям
Вы можете скачивать файлы