Статистика раздачи
Размер:  713 MB   |    Зарегистрирован:  3 месяца 12 дней   |    Скачан:  0 раз

Полного источника не было: Никогда

Личеров:  1  [  0 KB/s  ]  
 
   
 
 

lopster ®

Пол:
Не указан
Стаж:
3 месяца 12 дней
Сообщений:
612

Враг народа Бухарин
Год выпуска: 1990
Жанр: драма, биография
Продолжительность: 01:36:13
Режиссер: Леонид Марягин
В ролях: Александр Романцов, Сергей Шакуров, Евгений Лазарев, Геннадий Сайфулин, Лев Лемке, Николай Ферапонтов, Георгий Склянский, Марина Либакова-Ливанова, Е. Токарева, Иван Косых, Юрий Михайлов, Леонид Евтифьев, А. Литвинов, Геннадий Чулков, Ян Янакиев, Константин Борисов, Юрий Сосновский, Михаил Езепов, Леонид Тимцуник, Анатолий Грачёв
Описание: Историко-биографический фильм о Николае Бухарине (1888-1938).
Авторы исторической драмы приоткрывают малоизвестную страницу истории -«ложный» процесс над Николаем Бухариным, который стал репетицией главного действа, не замедлившего себя долго ждать. По архивным документам, именно на этом «малом» процессе Бухарин решил полностью изменить его ход и вместо навязанного ему сценария начал говорить правду. Впрочем, попытка эта была обречена. Одновременно с кадрами процесса перед нами проходит жизнь Николая Бухарина — жизнь, обернувшаяся трагедией.
Все раздачи фильма: Враг народа Бухарин
Качество видео: SATRip
Формат видео: AVI
Видео: 640x480 (1.33:1), 25 fps, XviD build 46 ~902 kbps avg, 0.12 bit/pixel
Аудио: 44.100 kHz, MPEG Layer 3, 1 ch, ~128.00 kbps avg

MI

Код:Общее
Полное имя : C:\otkat\Видео\Враг народа Бухарин\Vrag_Naroda_Bukharin.avi
Формат : AVI
Формат/Информация : Audio Video Interleave
Размер файла : 713 Мбайт
Продолжительность : 1 ч. 36 м.
Общий поток : 1036 Кбит/сек
Библиотека кодирования : TMPGEnc 4.0 XPress Version. 4.2.3.193
Видео
Идентификатор : 0
Формат : MPEG-4 Visual
Профиль формата : Advanced Simple@L5
Параметр BVOP формата : Нет
Параметр QPel формата : Нет
Параметр GMC формата : Без точки перехода
Параметр матрицы формата : Default (MPEG)
Идентификатор кодека : XVID
Идентификатор кодека/Подсказка : XviD
Продолжительность : 1 ч. 36 м.
Битрейт : 900 Кбит/сек
Ширина : 640 пикселей
Высота : 480 пикселей
Соотношение сторон : 4:3
Частота кадров : 25,000 кадров/сек
Цветовое пространство : YUV
Субдискретизация насыщенности : 4:2:0
Битовая глубина : 8 бит
Тип развёртки : Прогрессивная
Метод сжатия : С потерями
Бит/(Пиксели*Кадры) : 0.117
Размер потока : 619 Мбайт (87%)
Библиотека кодирования : XviD 1.1.2 (UTC 2006-11-01)
Аудио
Идентификатор : 1
Формат : MPEG Audio
Версия формата : Version 1
Профиль формата : Layer 3
Идентификатор кодека : 55
Идентификатор кодека/Подсказка : MP3
Продолжительность : 1 ч. 36 м.
Вид битрейта : Постоянный
Битрейт : 128 Кбит/сек
Каналы : 1 канал
Частота : 44,1 КГц
Метод сжатия : С потерями
Размер потока : 88,1 Мбайт (12%)
Выравнивание : Разделение по промежуткам
Продолжительность промежутка : 250 мс. (6,25 видеокадров)
Время предзагрузки промежутка : 219 мс.

Скриншоты


[cybertorrent.ru].t43.torrent 
Торрент: Зарегистрирован [ 2018-02-15 13:57 ] · F790A244B486C3AAE2C1002FDD90F6B87E3B01AD

Скачать .torrent

Скачать

14 KB

Статус: проверено
Скачан: 0 раз
Размер: 713 MB
Профиль [ЛС]
Показать сообщения:    

Текущее время: 28-Май 03:06

Часовой пояс: UTC ± 0



Вы не можете начинать темы
Вы не можете отвечать на сообщения
Вы не можете редактировать свои сообщения
Вы не можете удалять свои сообщения
Вы не можете голосовать в опросах
Вы не можете прикреплять файлы к сообщениям
Вы можете скачивать файлы