Статистика раздачи
Размер:  1,37 GB   |    Зарегистрирован:  3 месяца 9 дней   |    Скачан:  0 раз

Полного источника не было: Никогда

 
   
 
 

lopster ®

Пол:
Не указан
Стаж:
3 месяца 9 дней
Сообщений:
612

Стрелец неприкаянный
Жанр: мелодрама, фантастика, комедия
Год выпуска: 1993
Продолжительность: 01:30:18
Режиссёр: Георгий Шенгелия
В ролях: Владимир Ильин
Татьяна Догилева
Ирина Феофанова
Юрий Сенкевич
Николай Пастухов
Ренат Давлетьяров
Борис Лудмер
Александр Боровиков
Александр Коданев
Александр Кулямин
Описание: Бывший русский журналист Герман, находясь в эмиграции в Париже и влача полунищенское существование, получает известие о тяжелой болезни своего деда, знаменитого ученого-физика. Вернувшись в Россию, Герман узнает от умирающего деда о созданном им коридоре времени.
Герой решает воспользоваться этим изобретением для поправки своего материального положения. Неоднократные перемещения в 60-е годы и обратно привели к многочисленным трагикомедийным ситуациям. Все бы ничего, но тут еще и власти заподозрили неладное… Преследуемый в прошлом и настоящем герой попадает в безвыходное положение, но…
Доп. информация: Оцифровка VHS (личный архив) и получение VHSRip alenavova
Эксклюзив для rutracker.org. При размещении данного релиза на других сайтах ссылка на автора alenavova обязательна.
Релиз
Сэмпл: https://yadi.sk/i/A0LEaO8S3PR9JZ
Качество видео: VHSRip
Формат видео: AVI
Видео: 704x528 (1.33:1), 25 fps, XviD build 73 ~1969 kbps avg, 0.21 bit/pixel
Аудио: 48 kHz, AC3 Dolby Digital, 2/0 (L,R) ch, ~192 kbps

MediaInfo

Стрелец неприкаянный [by alenavova].avi
Format : AVI
Format/Info : Audio Video Interleave
File size : 1.37 GiB
Duration : 1 h 30 min
Overall bit rate : 2 171 kb/s
Movie name : Стрелец неприкаянный [by alenavova]
Director : by alenavova
Writing application : VirtualDubMod 1.5.10.3 | www.virtualdub-fr.org || (build 2550/release)
Copyright : Edich2
Comment : RuTracker.org
Video
ID : 0
Format : MPEG-4 Visual
Format profile : Advanced Simple@L5
Format settings, BVOP : 2
Format settings, QPel : No
Format settings, GMC : No warppoints
Format settings, Matrix : Custom
Codec ID : XVID
Codec ID/Hint : XviD
Duration : 1 h 30 min
Bit rate : 1 969 kb/s
Width : 704 pixels
Height : 528 pixels
Display aspect ratio : 4:3
Frame rate : 25.000 FPS
Color space : YUV
Chroma subsampling : 4:2:0
Bit depth : 8 bits
Scan type : Progressive
Compression mode : Lossy
Bits/(Pixel*Frame) : 0.212
Stream size : 1.24 GiB (91%)
Writing library : XviD 73
Audio
ID : 1
Format : AC-3
Format/Info : Audio Coding 3
Format settings, Endianness : Big
Codec ID : 2000
Duration : 1 h 30 min
Bit rate mode : Constant
Bit rate : 192 kb/s
Channel(s) : 2 channels
Channel positions : Front: L R
Sampling rate : 48.0 kHz
Frame rate : 31.250 FPS (1536 spf)
Bit depth : 16 bits
Compression mode : Lossy
Stream size : 124 MiB (9%)
Alignment : Split accross interleaves
Interleave, duration : 40 ms (1.00 video frame)
Interleave, preload duratio : 500 ms
Service kind : Complete Main

Скриншоты


[cybertorrent.ru].t430.torrent 
Торрент: Зарегистрирован [ 2018-02-15 15:48 ] · 4FC4FAD24F656BE3BC2A9E893040AB1E50B4E2F8

Скачать .torrent

Скачать

14 KB

Статус: проверено
Скачан: 0 раз
Размер: 1,37 GB
Профиль [ЛС]
Показать сообщения:    

Текущее время: 25-Май 08:42

Часовой пояс: UTC ± 0



Вы не можете начинать темы
Вы не можете отвечать на сообщения
Вы не можете редактировать свои сообщения
Вы не можете удалять свои сообщения
Вы не можете голосовать в опросах
Вы не можете прикреплять файлы к сообщениям
Вы можете скачивать файлы