Статистика раздачи
Размер:  743 MB   |    Зарегистрирован:  3 месяца 11 дней   |    Скачан:  0 раз

Полного источника не было: Никогда

Личеров:  5  [  0 KB/s  ]  
 
   
 
 

lopster ®

Пол:
Не указан
Стаж:
3 месяца 11 дней
Сообщений:
612

Любовь прет-а-порте
Студия: ОДА-Фильм
Жанр: Комедия
Год выпуска: 2017
Продолжительность: 01:21:55-Режиссёр: Макс Нардари-В ролях: Андреа Прети, Ольга Погодина, Михаил Химичев, Джанкарло Джаннини, Паоло Контичини, Лариса Удовиченко, Нино Фрассика, Тоска Д'Аквино, Пьетро Де Сильва, Алессандро Борги, Армандо Пиццути, Солена Ночентини, Антонио Де Маттео, Луис Молтени, Роберто Каррубба, Флора Канто-Описание: Он — знойный римский ловелас, избалованный сынок богатого папочки. Она — красавица, одинокая москвичка, которая всю жизнь ждала того, единственного. Он всю жизнь флиртовал, играл, блефовал. Она трудилась, презирая ложь и компромиссы. Одна короткая встреча в Риме запутала их жизни в яркий клубок надежд, обломов и страсти. Он стал для неё тем, кого она готова была полюбить, но не могла… Она стала для него той, ради которой стоило лгать, как никогда в жизни… А чего не сделаешь ради любви?..-Качество видео: WEB-DLRip
Формат видео: AVI
Видео: 672x368 (1.83:1), 25 fps, XviD build 73 ~1129 kbps avg, 0.18 bit/pixel
Аудио: 48 kHz, MPEG Layer 3, 2 ch, ~128.00 kbps avg-Скачать сэмпл-

MediaInfo

Код:Формат : AVI
Формат/Информация : Audio Video Interleave
Размер файла : 743 Мбайт
Продолжительность : 1 ч. 21 м.
Общий поток : 1267 Кбит/сек
Программа кодирования : VirtualDubMod 1.5.10.3 | www.virtualdub-fr.org || (build 2550/release)
Библиотека кодирования : VirtualDubMod build 2550/release
Видео
Идентификатор : 0
Формат : MPEG-4 Visual
Профиль формата : Advanced Simple@L5
Настройки формата : BVOP1
Параметр BVOP формата : 1
Параметр QPel формата : Нет
Параметр GMC формата : Без точки перехода
Параметр матрицы формата : Default (H.263)
Идентификатор кодека : XVID
Идентификатор кодека/Подсказка : XviD
Продолжительность : 1 ч. 21 м.
Битрейт : 1130 Кбит/сек
Ширина : 672 пикселя
Высота : 368 пикселей
Соотношение сторон : 1,85:1
Частота кадров : 25,000 кадров/сек
Цветовое пространство : YUV
Субдискретизация насыщенности : 4:2:0
Битовая глубина : 8 бит
Тип развёртки : Прогрессивная
Метод сжатия : С потерями
Бит/(Пиксели*Кадры) : 0.183
Размер потока : 662 Мбайт (89%)
Библиотека кодирования : XviD 73
Аудио
Идентификатор : 1
Формат : MPEG Audio
Версия формата : Version 1
Профиль формата : Layer 3
Идентификатор кодека : 55
Идентификатор кодека/Подсказка : MP3
Продолжительность : 1 ч. 21 м.
Вид битрейта : Постоянный
Битрейт : 128 Кбит/сек
Каналы : 2 канала
Частота : 48,0 КГц
Метод сжатия : С потерями
Размер потока : 75,0 Мбайт (10%)
Выравнивание : Соединение по промежуткам
Продолжительность промежутка : 40 мс. (1,00 видеокадр)
Время предзагрузки промежутка : 504 мс.
Библиотека кодирования : LAME3.99r
Настройки программы : -m s -V 4 -q 2 -lowpass 17 -b 128

Скриншоты

[cybertorrent.ru].t431.torrent 
Торрент: Зарегистрирован [ 2018-02-15 15:48 ] · F833D5D68DB59370DFE5EBA387F3CAD99933781C

Скачать .torrent

Скачать

15 KB

Статус: проверено
Скачан: 0 раз
Размер: 743 MB
Профиль [ЛС]
Показать сообщения:    

Текущее время: 27-Май 01:41

Часовой пояс: UTC ± 0



Вы не можете начинать темы
Вы не можете отвечать на сообщения
Вы не можете редактировать свои сообщения
Вы не можете удалять свои сообщения
Вы не можете голосовать в опросах
Вы не можете прикреплять файлы к сообщениям
Вы можете скачивать файлы