Статистика раздачи
Размер:  1,37 GB   |    Зарегистрирован:  3 месяца 8 дней   |    Скачан:  0 раз
Сидов:  259  [  0 KB/s  ]   Личеров:  13  [  0 KB/s  ]  
 
   
 
 

lopster ®

Пол:
Не указан
Стаж:
3 месяца 8 дней
Сообщений:
612

Следы на воде - Жанр: Драма, исторический
Год выпуска: 2017
Продолжительность: 01:35:32-Режиссёр: Александр Анисимов-В ролях: Артём Курень, Пётр Юрченков, Вероника Пляшкевич, Сергей Юревич, Татьяна Чердынцева, Анатолий Терпицкий, Игорь Денисов, Игорь Сигов, Виктор Манаев, Евгений Никитин, Андрей Кривецкий, Валерий Зеленский, Дмитрий Пустильник, Зоя Белохвостик, Сергей Савенков, Геннадий Фомин-Описание: Художественная реконструкция реальных событий, рассказывающих о борьбе белорусской милиции с бандитизмом в первые послевоенные годы.- -Качество видео: SATRip
Формат видео: AVI
Видео: 720x304 (2.35:1), 25.000 fps, XviD build 73, 1848 Kbps, 0.33 Bits/Pixel
Аудио: 48 kHz, AC3 Dolby Digital, 2 ch, 192 Kbps-Релиз группа: -

MediaInfo

General
Complete name : C:\Users\Andreas\Downloads\Следы на воде.2017.SATRip.Files-x.avi
Format : AVI
Format/Info : Audio Video Interleave
File size : 1.37 GiB
Duration : 1h 35mn
Overall bit rate : 2 050 Kbps
Writing application : VirtualDubMod 1.5.10.3 | www.virtualdub-fr.org || (build 2550/release)
Writing library : VirtualDubMod build 2550/release
Video #0
ID : 0
Format : MPEG-4 Visual
Format profile : Advanced Simple@L5
Format settings, BVOP : 1
Format settings, QPel : No
Format settings, GMC : No warppoints
Format settings, Matrix : Custom
Codec ID : XVID
Codec ID/Hint : XviD
Duration : 1h 35mn
Bit rate : 1 848 Kbps
Width : 720 pixels
Height : 304 pixels
Display aspect ratio : 2.35:1
Frame rate : 25.000 fps
Color space : YUV
Chroma subsampling : 4:2:0
Bit depth : 8 bits
Scan type : Progressive
Compression mode : Lossy
Bits/(Pixel*Frame) : 0.338
Stream size : 1.23 GiB (90%)
Writing library : XviD 73
Audio #1
ID : 1
Format : AC-3
Format/Info : Audio Coding 3
Mode extension : CM (complete main)
Format settings, Endianness : Big
Codec ID : 2000
Duration : 1h 35mn
Bit rate mode : Constant
Bit rate : 192 Kbps
Channel(s) : 2 channels
Channel positions : Front: L R
Sampling rate : 48.0 KHz
Bit depth : 16 bits
Compression mode : Lossy
Stream size : 131 MiB (9%)
Alignment : Split accross interleaves
Interleave, duration : 40 ms (1.00 video frame)
Interleave, preload duration : 500 ms

Скриншот c названием фильма

Скриншоты

[cybertorrent.ru].t432.torrent 
Торрент: Зарегистрирован [ 2018-02-15 15:48 ] · 7E6392C829CD1D25E8C00E17700947902A4CAF2E

Скачать .torrent

Скачать

14 KB

Статус: проверено
Скачан: 0 раз
Размер: 1,37 GB
Профиль [ЛС]
Показать сообщения:    

Текущее время: 23-Май 16:22

Часовой пояс: UTC ± 0



Вы не можете начинать темы
Вы не можете отвечать на сообщения
Вы не можете редактировать свои сообщения
Вы не можете удалять свои сообщения
Вы не можете голосовать в опросах
Вы не можете прикреплять файлы к сообщениям
Вы можете скачивать файлы